<?xml version="1.0" standalone="no"?>
<!DOCTYPE svg PUBLIC "-//W3C//DTD SVG 1.1//EN" "http://www.w3.org/Graphics/SVG/1.1/DTD/svg11.dtd" >
<svg xmlns="http://www.w3.org/2000/svg">
<metadata>
This is a custom SVG webfont generated by Font Squirrel.
Copyright   : Copyright c 2006 Parachute wwwparachutegr  All rights reserved
Designer    : Panos Vassiliou
Foundry     : Parachute Worldwide
Foundry URL : httpwwwparachutegr
</metadata>
<defs>
<font id="PFAgoraSlabProMedium" horiz-adv-x="1177" >
<font-face units-per-em="2048" ascent="1536" descent="-512" />
<missing-glyph horiz-adv-x="579" />
<glyph unicode=" "  horiz-adv-x="579" />
<glyph unicode="&#x09;" horiz-adv-x="579" />
<glyph unicode="&#xa0;" horiz-adv-x="579" />
<glyph unicode="!" horiz-adv-x="509" d="M127 100q0 51 37 87t92 36t91 -35.5t36 -87.5q0 -51 -37 -88t-90 -37q-57 0 -93 37t-36 88zM152 1434h208l-4 -582l-22 -483h-152l-22 483z" />
<glyph unicode="&#x22;" horiz-adv-x="636" d="M90 1407h189l-35 -451h-121zM369 1407h186l-31 -451h-123z" />
<glyph unicode="#" horiz-adv-x="1138" d="M104 401l17 113h162l69 313h-166l17 111h176l82 356h127l-82 -356h272l82 356h127l-80 -356h146l-15 -111h-157l-70 -313h158l-15 -113h-168l-88 -401h-129l88 401h-270l-90 -401h-129l90 401h-154zM412 514h272l68 313h-271z" />
<glyph unicode="$" d="M147 106v281h142v-166q55 -25 94 -34t84 -15v485q-66 20 -123 49t-100 69t-68.5 94.5t-25.5 129.5q0 154 87 247t230 120v139h80v-1659h-80v166q-84 8 -162 27.5t-158 66.5zM326 1018q0 -80 40 -118t101 -64v370q-59 -16 -100 -61t-41 -127zM614 -154v1659h82v-135 q66 -4 134.5 -21.5t127.5 -52.5v-276h-141v166q-29 12 -57.5 19t-63.5 12v-453q66 -25 130.5 -52.5t114.5 -68.5t81 -100.5t31 -145.5q0 -168 -99.5 -261t-257.5 -118v-172h-82zM696 180q76 16 126 66.5t50 146.5q0 78 -49 122t-127 73v-408z" />
<glyph unicode="%" horiz-adv-x="1740" d="M37 948q0 74 14.5 150t54 136t107.5 99t176 39q109 0 175.5 -40t103.5 -101.5t49 -136t12 -144.5q0 -78 -17.5 -151.5t-57.5 -132t-105.5 -94t-163.5 -35.5q-106 0 -174 34.5t-106.5 92t-53 131t-14.5 153.5zM205 946q0 -59 7 -111.5t26.5 -91t55.5 -61.5t95 -23 q53 0 86 26t51.5 67t25.5 92t7 104q0 43 -4 95.5t-21.5 97.5t-51 74.5t-93.5 29.5q-61 0 -98 -28.5t-55.5 -72.5t-24.5 -97.5t-6 -100.5zM494 -43l620 1485h135l-618 -1485h-137zM1008 406q0 74 14 149.5t54 136t107.5 99t176.5 38.5t175.5 -39.5t103 -101t49 -136.5 t12.5 -144q0 -78 -17.5 -152t-57.5 -132t-105.5 -94t-163.5 -36q-106 0 -174 34.5t-107 92t-53 131.5t-14 154zM1176 403q0 -59 7 -111t26.5 -91t55 -61.5t95.5 -22.5q53 0 86 25.5t51.5 66.5t25.5 92t7 105q0 43 -4 95t-21.5 97t-51.5 74.5t-93 29.5q-61 0 -98 -28.5 t-55.5 -72.5t-24.5 -97.5t-6 -100.5z" />
<glyph unicode="&#x26;" horiz-adv-x="1542" d="M82 377q0 260 334 440q-59 80 -84 145.5t-25 131.5q0 53 17.5 107t55.5 97t97.5 70t143.5 27q88 0 149 -27t99 -67.5t54.5 -90t16.5 -94.5q0 -59 -21.5 -107t-60.5 -90t-90 -79t-109 -72q45 -63 97.5 -132t109.5 -138q37 -43 73 -85t75 -83q72 72 125 161t69 199h-164 v146h478v-146h-140q-16 -135 -82.5 -254t-166.5 -217q72 -66 149.5 -119t151.5 -84l-78 -137q-37 14 -82 40t-93 57.5t-96.5 67.5t-87.5 73q-98 -70 -214.5 -107t-233.5 -37q-98 0 -183 26t-147.5 76t-99.5 126t-37 176zM276 387q0 -66 23 -115t60.5 -81.5t90 -49 t111.5 -16.5q78 0 159 26.5t157 77.5q-47 49 -88 99.5t-82 99.5q-53 66 -104.5 131.5t-96.5 124.5q-98 -53 -164 -124t-66 -173zM489 1104q0 -47 24 -98.5t65 -110.5q39 20 74.5 41.5t62 48.5t43 58.5t16.5 72.5q0 63 -40 101t-111 38q-37 0 -62.5 -15t-41 -37.5t-23 -49 t-7.5 -49.5z" />
<glyph unicode="'" horiz-adv-x="436" d="M123 1407h190l-34 -451h-123z" />
<glyph unicode="(" horiz-adv-x="624" d="M125 580q0 160 32.5 298t81 249.5t103.5 195.5t102 137l95 -59q-25 -37 -63 -106.5t-72.5 -173t-60.5 -237.5t-26 -300q0 -184 26 -328.5t60.5 -251t73.5 -178.5t64 -109l-97 -65q-45 51 -100 136t-104.5 201.5t-82 264.5t-32.5 326z" />
<glyph unicode=")" horiz-adv-x="628" d="M72 -283q25 37 62.5 109t73.5 178.5t61.5 250.5t25.5 329q0 166 -25.5 301t-61.5 237.5t-74 173t-62 105.5l94 59q45 -53 101.5 -137t104.5 -195.5t80.5 -250t32.5 -297.5q0 -178 -32.5 -324.5t-81.5 -263.5t-105.5 -202t-101.5 -138z" />
<glyph unicode="*" horiz-adv-x="825" d="M96 1118q8 53 21.5 97.5t38.5 87.5q51 -31 103 -61t106 -58l-48 233q25 6 49.5 7t51.5 1q25 0 48 -1t46 -7q-12 -57 -23.5 -116.5t-23.5 -116.5q51 27 104 55l107 57q31 -43 42 -87t17 -93q-61 -8 -121.5 -16t-121.5 -15l174 -163q-61 -70 -150 -113l-104 221l-101 -219 q-45 20 -81.5 46t-71.5 65l174 165z" />
<glyph unicode="+" d="M193 545v141h335v334h146v-334h334v-141h-334v-346h-146v346h-335z" />
<glyph unicode="," horiz-adv-x="475" d="M92 -207q49 49 75 99.5t32 105.5q-55 4 -77 39t-22 78q0 49 37 87t96 38q66 0 103 -45t37 -109q0 -94 -59.5 -193.5t-163.5 -166.5z" />
<glyph unicode="-" horiz-adv-x="772" d="M115 461v168h542v-168h-542z" />
<glyph unicode="." horiz-adv-x="473" d="M100 113q0 55 40 94t93 39q55 0 94.5 -39t39.5 -94t-39 -94t-92 -39q-55 0 -95.5 39t-40.5 94z" />
<glyph unicode="/" horiz-adv-x="714" d="M25 -61l526 1501h149l-526 -1501h-149z" />
<glyph unicode="0" d="M63 672q0 121 23 246.5t82 228t161.5 168t264.5 65.5q164 0 265.5 -67.5t156.5 -171t74.5 -227t19.5 -238.5q0 -129 -25.5 -253t-86 -221.5t-160 -156.5t-246.5 -59q-162 0 -265.5 58t-162 153.5t-80 219.5t-21.5 255zM283 668q0 -109 12 -204t46 -166t94.5 -111 t158.5 -40q90 0 148.5 46.5t91 120t45 167.5t12.5 191q0 80 -8.5 175t-38 177t-89 137.5t-161.5 55.5q-104 0 -165.5 -53.5t-93.5 -135.5t-42 -178t-10 -182z" />
<glyph unicode="1" d="M152 1241l362 121h195v-1208h282v-154h-790v154h293v1009q-6 0 -54.5 -7t-104.5 -15t-104.5 -15.5t-52.5 -7.5z" />
<glyph unicode="2" d="M80 1231q127 90 244.5 119.5t205.5 29.5q98 0 181.5 -24.5t141.5 -72.5t91 -119.5t33 -168.5q0 -82 -31 -161.5t-80 -156.5t-113.5 -149.5t-132 -139t-133 -126t-118.5 -108.5l493 -2v174h172v-326h-952v139q61 55 136 121t149.5 136.5t144.5 145t124 150.5t87 148.5 t33 140.5q0 117 -69 171t-191 54q-51 0 -139.5 -19.5t-204.5 -88.5z" />
<glyph unicode="3" d="M96 68l51 149q113 -35 193 -48t145 -13q158 0 249 67.5t91 208.5q0 123 -89 186.5t-269 63.5q-27 0 -51.5 -2t-53.5 -6l-32 117q45 47 98 100l109 108l108 109q53 53 100 98h-426v-180h-169v336h835l31 -121l-420 -418q94 -4 176 -26.5t143.5 -68.5t96.5 -118.5 t35 -175.5q0 -115 -42 -199.5t-114 -141t-167 -84t-200 -27.5q-106 0 -219 19.5t-209 66.5z" />
<glyph unicode="4" d="M63 385v139q68 90 152 198.5t171 220.5t171 220.5t152 198.5h206v-825h199v-152h-199v-231h144v-154h-490v154h140v231h-646zM262 537h449l-2 557h-11q-104 -139 -218 -279.5t-218 -277.5z" />
<glyph unicode="5" d="M100 70l52 151q115 -35 195.5 -48t146.5 -13q154 0 247 65.5t93 212.5q0 68 -25 119t-68 85t-99 50.5t-120 16.5q-53 0 -111.5 -14.5t-113.5 -39.5l-117 70l45 637h762v-305h-170v151h-416l-26 -379q35 14 82 25.5t129 11.5q92 0 176 -25.5t148.5 -77.5t103.5 -133 t39 -192q0 -115 -42 -200.5t-113 -143t-164 -85t-195 -27.5q-104 0 -222.5 18.5t-216.5 69.5z" />
<glyph unicode="6" d="M100 618q0 164 33 303.5t101.5 242t176 159.5t257.5 57q109 0 185.5 -17t117.5 -36l-41 -151q-76 29 -140.5 36t-111.5 7q-104 0 -173 -49.5t-110 -120t-58.5 -148.5t-21.5 -133l11 -8q78 41 157.5 67.5t175.5 26.5q82 0 157 -24.5t132.5 -76t92 -131t34.5 -190.5 q0 -106 -35.5 -189t-99 -140.5t-152 -87t-192.5 -29.5q-143 0 -238.5 49t-153 135t-81 200.5t-23.5 247.5zM317 561q0 -61 9.5 -134t39 -134.5t85 -103.5t147.5 -42q131 0 198.5 78t67.5 201q0 59 -12 109.5t-42 86t-78 56t-120 20.5q-68 0 -120 -14t-88.5 -30.5t-58 -33 t-28.5 -18.5v-41z" />
<glyph unicode="7" d="M162 1006v356h862v-145l-551 -1217h-207q135 305 271.5 604t273.5 604h-475v-202h-174z" />
<glyph unicode="8" d="M90 348q0 49 12.5 104.5t40 108.5t74.5 103.5t119 91.5q-92 55 -136 117.5t-44 160.5q0 76 32.5 140.5t92 111.5t140.5 73.5t179 26.5q74 0 151.5 -18t140 -59t102.5 -106.5t40 -158.5q0 -37 -8 -75.5t-29.5 -80.5t-59.5 -85t-97 -88q49 -25 91 -58.5t73.5 -76.5 t50 -96.5t18.5 -116.5q0 -82 -34.5 -152t-99.5 -121t-157 -80.5t-204 -29.5q-236 0 -362 100t-126 264zM311 371q0 -92 67.5 -159t203.5 -67q66 0 117 18.5t86.5 51.5t54 75t18.5 91q0 51 -24.5 91t-70.5 74t-113.5 64.5t-155.5 67.5q-53 -35 -89 -74t-56.5 -79t-29 -78.5 t-8.5 -75.5zM371 1032q0 -47 22.5 -79.5t62.5 -60.5t93 -51.5t115 -52.5q94 68 130.5 123.5t36.5 112.5q0 33 -13 67.5t-40.5 63.5t-74 48.5t-109.5 19.5q-61 0 -104.5 -20.5t-69 -49.5t-37.5 -62.5t-12 -58.5z" />
<glyph unicode="9" d="M86 930q0 106 36 190t99.5 141.5t151.5 88t192 30.5q141 0 236.5 -50t153 -136t81 -201.5t23.5 -247.5q0 -164 -33 -302t-102.5 -239.5t-176 -158.5t-255.5 -57q-111 0 -189 16t-131 33l41 147q84 -23 152.5 -31t115.5 -8q104 0 173 50.5t111 121t59.5 148.5t21.5 133 l-10 6q-76 -45 -158 -70.5t-176 -25.5q-84 0 -160 24.5t-132 75.5t-90 131t-34 191zM295 938q0 -59 12 -109.5t42 -87t79 -57t121 -20.5q66 0 118 14t89 30.5t58.5 32t27.5 19.5v43q0 59 -9.5 130t-38 132t-85 103t-148.5 42q-131 0 -198.5 -74.5t-67.5 -197.5z" />
<glyph unicode=":" horiz-adv-x="466" d="M100 113q0 55 40 94t93 39q55 0 94.5 -39t39.5 -94t-39 -94t-92 -39q-55 0 -95.5 39t-40.5 94zM100 737q0 53 40 92t93 39q55 0 94.5 -38.5t39.5 -92.5q0 -57 -39 -96t-92 -39q-55 0 -95.5 39t-40.5 96z" />
<glyph unicode=";" horiz-adv-x="466" d="M94 -207q49 49 75 99.5t32 105.5q-55 4 -77 39t-22 78q0 49 36 87t95 38q68 0 105 -45t37 -109q0 -94 -59.5 -193.5t-165.5 -166.5zM100 737q0 53 40 92t93 39q55 0 94.5 -38.5t39.5 -92.5q0 -57 -39 -96t-92 -39q-55 0 -95.5 39t-40.5 96z" />
<glyph unicode="&#x3c;" d="M168 551v117l856 426v-164l-672 -320l672 -323v-162z" />
<glyph unicode="=" d="M166 391v137h844v-137h-844zM166 702v140h844v-140h-844z" />
<glyph unicode="&#x3e;" d="M168 125v162l672 323l-672 320v164l856 -426v-117z" />
<glyph unicode="?" horiz-adv-x="950" d="M86 1067v309q106 37 210.5 53.5t184.5 16.5q188 0 298 -76t110 -209q0 -70 -32 -130t-79 -114.5t-102 -104.5t-102.5 -101.5t-79 -103.5t-31.5 -111q0 -29 3 -59.5t7 -69.5l-172 -15q-10 53 -15 97.5t-5 74.5q0 63 20.5 116.5t55 102t82.5 95.5t104 100q53 51 84.5 93 t31.5 99q0 78 -58 112t-148 34q-47 0 -98.5 -7t-104.5 -24v-178h-164zM295 96q0 51 36 87t89 36t90 -36t37 -87q0 -49 -37 -82.5t-88 -33.5q-53 0 -90 33.5t-37 82.5z" />
<glyph unicode="@" horiz-adv-x="1837" d="M154 682q0 160 62.5 296t171 234.5t253.5 153.5t311 55q168 0 302.5 -48t228.5 -137t143 -214t49 -277q-2 -102 -32.5 -181t-83 -132t-119 -79.5t-137.5 -26.5q-33 0 -68 6t-66.5 21.5t-57.5 39t-38 58.5q-47 -49 -119.5 -81t-148.5 -32q-68 0 -111 22.5t-66.5 54 t-32.5 69.5t-9 69q0 82 42 127t109.5 67.5t149.5 29.5t162 14v45q0 86 -30 117.5t-116 31.5q-109 0 -225 -37l-31 105q66 29 141.5 44t151.5 15q117 0 188.5 -55.5t71.5 -192.5v-309q0 -51 32 -83t97 -32q33 0 72 16.5t71.5 52.5t54 93t21.5 137q0 131 -42 236.5 t-118.5 179.5t-187 113t-248.5 39q-139 0 -262 -47.5t-214 -130t-144 -196.5t-53 -245q0 -135 47 -248.5t130 -197.5t196.5 -131.5t246.5 -47.5q55 0 118.5 9.5t141.5 33.5q10 -25 18.5 -49t18.5 -51q-61 -27 -140 -41t-155 -14q-170 0 -308 55t-235.5 152.5t-150.5 231.5 t-53 292zM752 571q0 -57 27.5 -88.5t92.5 -31.5q86 0 177 77v174q-49 -6 -102.5 -9t-96.5 -14t-70.5 -36t-27.5 -72z" />
<glyph unicode="A" horiz-adv-x="1427" d="M41 0v156h115l424 1249h280q100 -305 207 -624.5t207 -624.5h115v-156h-480v156h135q-16 53 -36.5 117.5t-36.5 113.5h-527q-14 -43 -34.5 -108.5t-36.5 -122.5h139v-156h-471zM498 543h426q-41 139 -84 275t-88 276q-8 31 -17.5 61.5t-19.5 61.5h-4l-39 -125 q-18 -55 -41 -126t-47.5 -146t-47 -147.5t-38.5 -129.5z" />
<glyph unicode="B" horiz-adv-x="1327" d="M82 0v156h143v1089h-135v158h643q236 0 350.5 -95.5t114.5 -269.5q0 -31 -6 -70.5t-26.5 -81.5t-57.5 -82t-98 -69v-2q68 -20 111.5 -58t70.5 -85t38 -99.5t11 -101.5q0 -90 -32.5 -161.5t-90 -122t-133.5 -78t-164 -27.5h-739zM453 156h297q70 0 119 19.5t80.5 53 t46 78.5t14.5 94t-16.5 93.5t-48.5 78t-81 54t-114 20.5h-297v-491zM453 803h266q123 0 187.5 60.5t64.5 158.5t-59.5 160.5t-192.5 62.5h-266v-442z" />
<glyph unicode="C" horiz-adv-x="1214" d="M102 696q0 117 28 247t99.5 237.5t196.5 178.5t319 71q115 0 205 -16.5t160 -41.5v-356h-164v215q-47 12 -98 17t-96 5q-111 0 -189 -39.5t-128 -112.5t-73.5 -175.5t-23.5 -227.5q0 -123 20.5 -221t70.5 -167.5t135 -106.5t214 -37q27 0 67 2t85 8t92 14.5t88 20.5 l37 -160q-41 -16 -91 -28.5t-105.5 -21.5t-112 -14t-107.5 -5q-178 0 -299 54t-193.5 149.5t-104.5 226t-32 284.5z" />
<glyph unicode="D" horiz-adv-x="1417" d="M86 0v158h143v1085h-135v162h623q178 0 293.5 -56.5t183.5 -152.5t94.5 -222t26.5 -267q0 -143 -30 -271.5t-100.5 -225.5t-188 -153.5t-294.5 -56.5h-616zM459 158h217q51 0 120.5 15t132 70.5t106.5 162t44 288.5q0 184 -40 294t-99 166t-129 72.5t-127 16.5h-225 v-1085z" />
<glyph unicode="E" horiz-adv-x="1243" d="M86 0v160h139v1085h-135v158h1063v-367h-166v209h-536v-440l497 10v-162l-497 9v-502h563v215h168v-375h-1096z" />
<glyph unicode="F" horiz-adv-x="1202" d="M86 0v158h139v1087h-135v158h1065v-367h-168v209h-536v-440l497 10v-162l-497 9v-504h194v-158h-559z" />
<glyph unicode="G" horiz-adv-x="1345" d="M102 696q0 117 28 246t102.5 237.5t204.5 179.5t335 71q115 0 211 -16.5t166 -41.5v-350h-164v205q-41 10 -96 17t-109 7q-117 0 -199.5 -40t-137 -111.5t-80 -174t-25.5 -227.5q0 -117 19.5 -215t65.5 -168.5t124 -110.5t196 -40q49 0 115 7t111 22v393h-203v153h512 v-153h-102v-535q-111 -35 -225.5 -52t-221.5 -17q-176 0 -296 54t-193.5 149.5t-105.5 226t-32 284.5z" />
<glyph unicode="H" horiz-adv-x="1513" d="M84 0v158h137v1087h-137v158h491v-158h-129v-436h617v436h-127v158h491v-158h-137v-1087h137v-158h-491v158h127v499h-617v-499h129v-158h-491z" />
<glyph unicode="I" horiz-adv-x="780" d="M143 0v158h133v1087h-133v160h494v-160h-135v-1087h135v-158h-494z" />
<glyph unicode="J" horiz-adv-x="804" d="M-49 -219q111 59 181.5 113.5t110.5 115t54 131t14 162.5v942h-178v160h563v-160h-157l-2 -948q0 -137 -34 -243.5t-100.5 -186.5t-165 -137.5t-227.5 -94.5z" />
<glyph unicode="K" horiz-adv-x="1388" d="M86 0v156h135v1095h-135v152h487v-152h-131v-489l512 487h-129v154h486v-154h-119l-424 -397l467 -694h119v-158h-502l-2 158h129l-373 557l-164 -156v-403h129v-156h-485z" />
<glyph unicode="L" horiz-adv-x="1210" d="M86 0v158h139v1087h-135v158h510v-158h-147v-1087h571v250h168v-408h-1106z" />
<glyph unicode="M" horiz-adv-x="1863" d="M63 0v156h136v1089h-136v158h429q29 -59 62.5 -134t70.5 -161q47 -104 96 -218t96 -222q33 -72 60.5 -138.5t50.5 -119.5h10q25 53 48.5 110.5t45.5 110.5l219 504l117 268h422v-158h-127v-1089h127v-156h-479v156h125v927h-4l-82 -192q-33 -76 -65 -151.5t-66 -151.5 q-47 -102 -91.5 -203.5t-89.5 -206.5h-213q-47 104 -95 207.5t-95 208.5l-137 309l-78 180h-6q0 -233 -1 -463.5t-1 -463.5h133v-156h-482z" />
<glyph unicode="N" horiz-adv-x="1576" d="M80 156h141q0 274 1 544.5t1 544.5h-141v158h381q98 -154 171 -269.5t132 -205.5l227 -359l70 -110q35 -55 70 -113h10v899h-142v158h488v-158h-135v-1245h-217l-328 504q-61 94 -123.5 189t-124.5 194q-31 49 -61.5 99t-63.5 99q-2 0 -2 -1t-2 -1v-927h139q0 -39 1 -78 t1 -78h-491q0 39 -1 78t-1 78z" />
<glyph unicode="O" horiz-adv-x="1443" d="M102 694q0 147 34 280.5t110 234t194.5 159.5t288.5 59q172 0 290 -59t189.5 -158.5t102 -231.5t30.5 -278q0 -154 -38.5 -284.5t-115.5 -228t-191.5 -151.5t-266.5 -54q-166 0 -284.5 51t-194.5 144t-112 224t-36 293zM338 692q0 -264 91 -402t300 -138q98 0 169 42 t117 114.5t67.5 172t21.5 213.5q0 100 -14.5 201.5t-55.5 181.5t-114.5 130t-190.5 50t-192.5 -47t-119.5 -125.5t-61.5 -181t-17.5 -211.5z" />
<glyph unicode="P" horiz-adv-x="1224" d="M86 0v158h133v1087h-133v160h625q213 0 333.5 -107.5t120.5 -308.5q0 -70 -22.5 -144.5t-72.5 -137t-133 -103.5t-204 -41h-289v-405h179v-158h-537zM444 719h238q49 0 94 13t80 44t55.5 81t20.5 124q0 137 -67.5 200.5t-188.5 63.5h-232v-526z" />
<glyph unicode="Q" horiz-adv-x="1445" d="M102 694q0 147 34 280.5t108.5 234t193.5 159.5t289 59q172 0 289 -59t188.5 -159.5t102 -233.5t30.5 -279q0 -221 -77.5 -391t-233.5 -252l320 -78l-72 -182l-547 178q-53 4 -101 13.5t-89 19.5q-229 59 -332 234t-103 456zM336 690q0 -264 91 -401t300 -137 q98 0 169 40.5t117 113.5t67.5 172.5t21.5 215.5q0 100 -14.5 200.5t-55.5 181.5t-113.5 131t-191.5 50q-117 0 -192.5 -48t-119.5 -126.5t-61.5 -181t-17.5 -211.5z" />
<glyph unicode="R" horiz-adv-x="1327" d="M88 0v160h131v1085h-131v160h641q215 0 332 -102.5t117 -294.5q0 -49 -12.5 -104.5t-42 -108t-79 -94.5t-120.5 -64l221 -483l151 -21v-123q-41 -16 -95 -24.5t-89 -8.5q-74 0 -108.5 33t-63.5 94l-219 498h-277v-442h158v-160h-514zM444 756h248q41 0 85 10t81 37.5 t60.5 76t23.5 126.5q0 66 -20.5 111.5t-54 74.5t-80 41t-95.5 12h-248v-489z" />
<glyph unicode="S" d="M76 383h164l2 -168q76 -35 153.5 -48t145.5 -13q80 0 139 20.5t98 52t58.5 73.5t19.5 85q0 63 -23.5 102t-65.5 63.5t-98.5 42t-123.5 36.5q-94 20 -176 51t-143.5 75t-97.5 107.5t-36 151.5q2 100 41 177t105.5 128t155.5 77.5t194 26.5q45 0 98 -4t107.5 -13 t107.5 -26.5t98 -42.5l2 -293h-165l-2 170q-47 20 -118 28.5t-126 8.5q-53 0 -101.5 -13t-84 -40t-57 -66.5t-21.5 -91.5q0 -49 25.5 -84.5t68.5 -62.5t99 -46.5t118 -33.5q86 -20 169 -48t148.5 -74t105.5 -116.5t40 -179.5t-40 -186.5t-111.5 -128.5t-172 -74.5 t-221.5 -23.5q-119 0 -244 22.5t-233 79.5q0 74 -1 148.5t-1 150.5z" />
<glyph unicode="T" horiz-adv-x="1202" d="M31 1022v383h1143v-383h-166v223h-293v-1087h168v-158h-559v158h168v1087h-297v-223h-164z" />
<glyph unicode="U" horiz-adv-x="1490" d="M66 1245v160h481v-160h-139v-733q0 -180 87 -268t250 -88q160 0 248 86t88 270v733h-137v160h481v-160h-125v-735q0 -242 -136 -384t-421 -142q-147 0 -252.5 35.5t-173 103t-99.5 166t-32 221.5v735h-120z" />
<glyph unicode="V" horiz-adv-x="1376" d="M18 1243v160h480q0 -41 -1 -80t-1 -80h-121q63 -209 124.5 -406.5t127.5 -404.5q16 -55 32.5 -111.5t32.5 -113.5h8l68 229q63 201 122.5 402.5t121.5 404.5h-121v160h467v-160h-123q-102 -311 -202.5 -622.5t-205.5 -620.5h-274q-104 309 -206.5 620.5t-207.5 622.5 h-121z" />
<glyph unicode="W" horiz-adv-x="2007" d="M20 1243v162h492v-162h-133l182 -749l64 -273h4l73 273l199 682l-24 67h-136l-2 162h506l2 -162h-141l231 -762l72 -243h4l60 266l169 739h-131v162h484v-162h-127q-18 -74 -44 -175t-55.5 -215t-61.5 -233.5t-61.5 -233.5t-55 -213t-44.5 -173h-272l-205 690l-59 203h-4 l-62 -211l-203 -682h-274l-326 1243h-121z" />
<glyph unicode="X" horiz-adv-x="1366" d="M37 0v160h125l375 569l-322 514h-147l2 162h520v-162h-119l240 -389l247 389h-122v162h467v-162h-129l-353 -522l363 -561h135l2 -160h-530v160h129l-269 430l-274 -430h135v-160h-475z" />
<glyph unicode="Y" horiz-adv-x="1271" d="M25 1243v162h464v-162h-118l262 -493h8l270 493h-120v162h458v-162h-114l-387 -655v-430h163v-158h-559v158h164v424l-379 661h-112z" />
<glyph unicode="Z" horiz-adv-x="1157" d="M47 0v156l752 1089h-535v-219h-168v379h977v-156l-754 -1089h625v248h170v-408h-1067z" />
<glyph unicode="[" horiz-adv-x="577" d="M119 -328v1758h387v-134h-197v-1493h197v-131h-387z" />
<glyph unicode="\" horiz-adv-x="714" d="M25 1440h147l528 -1501h-149z" />
<glyph unicode="]" horiz-adv-x="577" d="M72 -197h198v1493h-198v134h387v-1758h-387v131z" />
<glyph unicode="^" horiz-adv-x="944" d="M41 758l369 635h114l365 -635h-156q-68 119 -134.5 236.5t-133.5 234.5q-61 -113 -132 -232.5t-136 -238.5h-156z" />
<glyph unicode="_" horiz-adv-x="1024" d="M0 -166h1024v-117h-1024v117z" />
<glyph unicode="`" horiz-adv-x="1024" d="M287 1378l129 129l274 -338l-80 -75z" />
<glyph unicode="a" horiz-adv-x="1099" d="M68 270q0 61 21.5 112.5t68.5 90.5t120.5 64.5t178.5 31.5l241 17v59q0 113 -43 160t-157 47q-74 0 -155 -14.5t-153 -38.5l-20 69l-20 70q86 39 193.5 59.5t205.5 20.5q168 0 262 -75t94 -263v-526h156l12 -123q-20 -12 -51 -20.5t-63.5 -13.5t-63.5 -7t-51 -2 q-59 0 -97 22.5t-40 102.5q-2 0 -2 1t-3 1q-55 -49 -106 -76t-95 -40t-79 -15t-57 -2q-90 0 -147.5 28.5t-91.5 71.5t-46 94t-12 94zM295 293q0 -80 39 -118t127 -38q55 0 119.5 29t113.5 76v225l-223 -16q-86 -6 -131 -50.5t-45 -107.5z" />
<glyph unicode="b" horiz-adv-x="1163" d="M4 1305v155h373v-522q86 47 160.5 67.5t134.5 20.5q115 0 191.5 -40t121.5 -110.5t63.5 -167t18.5 -210.5q0 -104 -21.5 -197.5t-73.5 -164t-140.5 -111.5t-219.5 -41q-98 0 -221 22.5t-233 73.5v1225h-154zM377 190q59 -25 116.5 -34t104.5 -9q57 0 102 16.5t78 56.5 t50.5 106.5t17.5 167.5q0 113 -16.5 183.5t-46 110t-69.5 55t-87 15.5q-66 0 -131.5 -24.5t-118.5 -53.5v-590z" />
<glyph unicode="c" horiz-adv-x="964" d="M82 489q0 82 18.5 176.5t70.5 174.5t145.5 132t240.5 52q84 0 162 -13.5t143 -39.5v-281h-155v146q-18 4 -44 7t-45 3q-168 0 -242.5 -83t-74.5 -269q0 -176 68.5 -260t201.5 -84q76 0 145.5 14t141.5 43l47 -144q-70 -39 -165 -59t-195 -20q-135 0 -224.5 38.5 t-142.5 107.5t-74.5 161t-21.5 198z" />
<glyph unicode="d" horiz-adv-x="1171" d="M82 481q0 117 22.5 216.5t71.5 172t128 114.5t194 42q55 0 129.5 -13.5t144.5 -49.5v342h-160v155h379v-1306h150v-154h-357v90l-4 2q-63 -51 -148 -79.5t-159 -28.5q-111 0 -186.5 39.5t-120.5 107.5t-64.5 158t-19.5 192zM303 483q0 -98 17.5 -162.5t48 -102.5 t72.5 -53t91 -15q66 0 134.5 29.5t105.5 62.5v551q-16 12 -43 23t-58.5 20.5t-65.5 15.5t-64 6q-47 0 -90 -16.5t-76 -58.5t-52.5 -114.5t-19.5 -185.5z" />
<glyph unicode="e" horiz-adv-x="1034" d="M82 498q0 74 18.5 165t69.5 171.5t141 135t232 54.5q145 0 228 -54.5t125 -131t52 -158.5t10 -137v-99h-655q0 -68 12.5 -123t43 -94t83 -60.5t129.5 -21.5q86 0 158 16.5t154 51.5l55 -137q-94 -49 -193.5 -71.5t-199.5 -22.5q-141 0 -230.5 43t-141.5 114.5t-71.5 165 t-19.5 193.5zM307 596h447q-2 55 -12.5 103.5t-35 85t-64.5 58t-101 21.5q-59 0 -102.5 -23.5t-71 -61.5t-43 -86t-17.5 -97z" />
<glyph unicode="f" horiz-adv-x="784" d="M57 846v123l144 39v149q0 145 80.5 233.5t265.5 88.5q47 0 112.5 -6.5t124.5 -22.5l-30 -154q-41 6 -83 10.5t-75 4.5q-90 0 -137 -35t-47 -123v-152h293v-155h-293v-692h168v-154h-521v154h140v692h-142z" />
<glyph unicode="g" horiz-adv-x="1105" d="M61 -164q0 86 42 147.5t90 88.5q-59 12 -90 53t-31 100q0 43 16 73t41 50.5t54.5 32.5t58.5 18q-55 25 -98.5 87.5t-43.5 172.5q0 98 37 168t97.5 114t137.5 64.5t154 20.5q53 0 105.5 -7t93.5 -18h338v-120h-154l-6 -4q33 -37 50.5 -94.5t17.5 -114.5q0 -84 -34 -147.5 t-92.5 -107.5t-138 -67.5t-174.5 -23.5h-112q-72 0 -109 -14.5t-37 -55.5q0 -63 95 -64h270q186 0 290.5 -74.5t104.5 -224.5q0 -72 -31.5 -132t-98 -105t-166 -70.5t-234.5 -25.5q-129 0 -214 23.5t-136.5 61t-72 89t-20.5 106.5zM276 -115q0 -31 11.5 -61.5t40 -53t79 -37 t130.5 -14.5q135 0 203.5 46.5t68.5 119.5q0 29 -10.5 56.5t-35 50t-64.5 37t-99 14.5h-217q-18 -6 -37.5 -22.5t-35 -38t-25 -47t-9.5 -50.5zM322 668q0 -90 51 -141.5t143 -51.5q100 0 167 48t67 147q0 31 -10.5 65.5t-35 64t-66.5 49t-106 19.5q-104 0 -157 -54t-53 -146 z" />
<glyph unicode="h" horiz-adv-x="1245" d="M41 1305v155h360v-549q86 53 176.5 83t167.5 30q109 0 170.5 -36t91 -87t37 -109.5t7.5 -101.5v-534h151v-129q-43 -20 -102.5 -29.5t-100.5 -9.5q-61 0 -94 22.5t-49 53t-19 60.5t-3 46v479q0 51 -6.5 88t-23 61.5t-49 37t-83.5 12.5q-63 0 -138 -28.5t-133 -63.5v-756 h-217v1305h-143z" />
<glyph unicode="i" horiz-adv-x="645" d="M109 844v155h321v-841h148v-131q-43 -20 -99.5 -30.5t-97.5 -10.5q-88 0 -127 35.5t-41 125.5v697h-104zM180 1280q0 57 39 96t94 39q57 0 97.5 -39t40.5 -96q0 -55 -40 -95t-98 -40q-55 0 -94 40t-39 95z" />
<glyph unicode="j" horiz-adv-x="614" d="M-43 -332q82 49 132 92t77 89.5t36 99.5t9 121v774h-135v155h352v-915q0 -113 -20.5 -199t-67.5 -151.5t-125 -115.5t-192 -89zM178 1280q0 57 39 96t96 39q53 0 94.5 -39t41.5 -96q0 -55 -41 -95t-95 -40q-57 0 -96 40t-39 95z" />
<glyph unicode="k" horiz-adv-x="1142" d="M37 1311v145h371v-864l303 260h-90v147h434v-147h-92l-269 -229l291 -476l131 -18v-117q-39 -14 -85 -20t-79 -6q-41 0 -78.5 12t-68.5 63l-264 445q-35 -29 -67 -57.5t-66 -57.5v-246h127v-145h-484v145h139v1166h-153z" />
<glyph unicode="l" horiz-adv-x="655" d="M76 1305v155h370v-1306h142v-154h-498v154h139v1151h-153z" />
<glyph unicode="m" horiz-adv-x="1853" d="M41 844v157h360v-88l9 -6q84 55 173 84t165 29q172 0 243 -125q37 27 82 50.5t92 39.5t94.5 26.5t90.5 10.5q102 0 163.5 -29.5t94 -79t43 -110t10.5 -121.5v-526h139v-129q-45 -20 -98 -29.5t-94 -9.5q-92 0 -126 34.5t-38 108.5v510q0 100 -32 148.5t-134 48.5 q-29 0 -62.5 -6.5t-68.5 -16.5t-67.5 -24.5t-57.5 -30.5q8 -33 9 -67t1 -58v-635h-217v668q0 98 -43 134t-113 36q-59 0 -128.5 -26t-122.5 -60v-752h-220v844h-147z" />
<glyph unicode="n" horiz-adv-x="1251" d="M43 846v155h360v-88l11 -2q86 55 172 84t162 29q109 0 170 -36t90.5 -87t37 -109.5t7.5 -101.5v-534h151v-129q-43 -20 -102.5 -29.5t-100.5 -9.5q-61 0 -94 19.5t-49 46t-19 53t-3 43.5v499q0 51 -6.5 88t-22.5 61.5t-49 37t-84 12.5q-63 0 -138 -28.5t-133 -63.5v-756 h-217v846h-143z" />
<glyph unicode="o" horiz-adv-x="1101" d="M82 496q0 102 26.5 197t84 168t147.5 117t217 44q129 0 218 -44t143.5 -115.5t78 -167t23.5 -195.5t-24.5 -193.5t-81 -165t-147.5 -114.5t-226 -43q-127 0 -214 41t-141.5 111.5t-79 163t-24.5 196.5zM307 496q0 -70 9.5 -133.5t36 -111.5t74.5 -77t128 -29q74 0 121 31 t73.5 80t37 111.5t10.5 128.5q0 63 -9.5 127.5t-35 117t-71.5 85t-120 32.5q-76 0 -125 -31.5t-77.5 -83t-40 -115.5t-11.5 -132z" />
<glyph unicode="p" horiz-adv-x="1163" d="M33 -274h149v1118h-149v155h354v-92l4 -2q61 51 147.5 81t159.5 30q113 0 188 -40t121 -107.5t65.5 -159t19.5 -191.5q0 -117 -22.5 -215t-72 -170t-129.5 -112.5t-194 -40.5q-53 0 -128 14t-147 51v-319h160v-156h-526v156zM399 219q18 -12 45 -24.5t59 -21.5t65.5 -15 t64.5 -6q45 0 88 15t75.5 55t52 112t19.5 182q0 98 -17 160.5t-47 99.5t-72 50.5t-91 13.5q-33 0 -67.5 -8.5t-67.5 -21.5t-60.5 -29.5t-46.5 -32.5v-529z" />
<glyph unicode="q" horiz-adv-x="1159" d="M98 485q2 106 25.5 202.5t78 170.5t144.5 117t225 43q98 0 214 -21.5t221 -68.5v-1202h151v-156h-534v156h165v337q-86 -47 -160.5 -66.5t-133.5 -19.5q-111 0 -188 37t-123 104.5t-66 161.5q-19 85 -19 185v20zM319 498v-24q0 -91 15 -149q16 -67 46 -105t71 -51t88 -13 q66 0 131 22.5t118 50.5v580q-53 23 -107 31t-103 8q-115 0 -186 -77.5t-73 -272.5z" />
<glyph unicode="r" horiz-adv-x="851" d="M66 0v154h139v692h-135v155h350v-141l6 -2q31 27 74 56.5t92 54t100 41t99 16.5q29 0 43 -15.5t14 -54.5q0 -41 -16.5 -98t-51.5 -94l-356 -2v-608h149v-154h-507z" />
<glyph unicode="s" horiz-adv-x="950" d="M61 305h158l6 -127q41 -23 98.5 -32t104.5 -9q92 0 156.5 30t64.5 103q0 37 -15.5 61.5t-42 42t-62 30t-74.5 24.5q-70 20 -137.5 40.5t-121 53.5t-86 81t-32.5 124q0 78 29.5 133t82 91t125 53.5t158.5 17.5q88 0 175 -17.5t155 -58.5q0 -59 1 -119.5t3 -121.5h-162 l-4 133q-70 29 -154 28q-78 0 -132 -29.5t-54 -101.5q0 -31 19.5 -52t49 -36.5t62.5 -26t62 -18.5q61 -18 128.5 -37.5t124 -54.5t92 -91.5t35.5 -148.5q0 -74 -30.5 -128t-87 -89t-136 -52t-176.5 -17q-88 0 -192.5 15t-185.5 62z" />
<glyph unicode="t" horiz-adv-x="800" d="M37 846v123l153 47l62 231l145 19v-265h297v-155h-299v-522q0 -39 5.5 -69t19.5 -50.5t40.5 -31.5t71.5 -11q35 0 81 6t104 22l33 -147q-59 -27 -132 -41t-137 -14q-86 0 -144 18.5t-93 53t-49.5 84t-14.5 110.5v592h-143z" />
<glyph unicode="u" horiz-adv-x="1230" d="M45 844v157h363v-667q0 -43 4 -76t19 -55.5t44 -33.5t78 -11t124 24.5t142 87.5v574h-129v157h348v-845h142v-129q-57 -23 -110.5 -31t-88.5 -8q-76 0 -111.5 27.5t-44.5 101.5q-92 -84 -182 -112t-156 -28q-96 0 -154.5 27t-90 72t-43 102.5t-11.5 118.5v547h-143z" />
<glyph unicode="v" horiz-adv-x="1132" d="M31 838v163h270l143 -442q12 -43 28.5 -91t34 -99.5t34 -100.5t28.5 -92h9q23 78 54.5 170t53.5 168q27 78 55.5 165t53.5 165h-88v157h393v-157h-96q-31 -92 -71 -200.5t-81 -221.5t-81 -221.5t-73 -200.5h-264q-31 90 -69.5 198.5t-78.5 220t-78 219t-69 200.5h-108z " />
<glyph unicode="w" horiz-adv-x="1761" d="M29 838v163h274l150 -532l84 -311h10l90 266l131 375l-18 45h-150v157h508v-157h-113l148 -414l98 -268h8l74 280l115 404h-123v155h420v-155l-97 -2l-249 -844h-291l-115 309l-94 264h-10l-88 -264l-109 -309h-299l-246 838h-108z" />
<glyph unicode="x" horiz-adv-x="1122" d="M25 0l2 154h92l297 393l-197 299h-168v153h301l219 -331l131 178h-100v153h445v-153h-119l-256 -330l241 -362h146v-154h-463v154h80l-156 235l-178 -235h115v-154h-432z" />
<glyph unicode="y" horiz-adv-x="1148" d="M35 840v161h264q8 -25 28.5 -93t48 -159.5t58.5 -191.5t56.5 -187t44 -149.5t22.5 -77.5h10q4 14 21.5 66.5t40 123t49.5 151.5t50.5 154t41.5 129t27 77h-121v157h426v-157h-101l-364 -1061q-20 -53 -44 -94t-56.5 -69t-78.5 -43t-114 -15q-23 0 -86 5t-147 32l32 172 q45 -10 86 -15.5t76 -5.5q49 0 77 12.5t46 42t36.5 79.5t49.5 128h-108q-68 207 -134.5 413t-134.5 415h-102z" />
<glyph unicode="z" horiz-adv-x="972" d="M53 0v137l574 713h-379v-158h-156v309h803v-135l-573 -716h434v153h157v-303h-860z" />
<glyph unicode="{" horiz-adv-x="595" d="M59 537v116q78 14 109 71.5t31 145.5v273q0 47 5 99t25.5 95t61.5 72t112 29h148v-131h-51q-61 0 -85 -39t-24 -97v-315q0 -45 -4 -87t-18.5 -76t-40 -58.5t-68.5 -34.5v-2q45 -23 71.5 -50.5t40 -63t16.5 -83t3 -104.5v-377q0 -53 18.5 -93t84.5 -40h57v-131h-135 q-72 0 -114 20.5t-65.5 56.5t-30.5 84t-7 103v412q0 78 -31 136.5t-109 68.5z" />
<glyph unicode="|" horiz-adv-x="557" d="M199 -291v1731h149v-1731h-149z" />
<glyph unicode="}" horiz-adv-x="595" d="M47 -213h57q66 0 84.5 40t18.5 93v377q0 57 3 104.5t16.5 83t40 63t71.5 50.5v2q-43 10 -68.5 34.5t-40 58.5t-18.5 76t-4 87v315q0 57 -23.5 96.5t-85.5 39.5h-51v131h148q72 0 112.5 -29t61 -72t25.5 -95t5 -99v-273q0 -88 31 -145t109 -72v-116q-78 -10 -109 -68.5 t-31 -136.5v-412q0 -55 -7 -103t-30.5 -84t-66.5 -56.5t-113 -20.5h-135v131z" />
<glyph unicode="~" d="M147 557q41 94 104.5 143.5t143.5 49.5q51 0 109.5 -14.5t118 -33t116 -33t99.5 -14.5l139 99l80 -64q-35 -92 -96.5 -145t-147.5 -53q-61 0 -121.5 15t-116 32.5t-104.5 33t-92 15.5l-148 -96z" />
<glyph unicode="&#xa1;" horiz-adv-x="509" d="M127 897q0 51 36 88t93 37q53 0 90 -37t37 -88t-36 -87t-91 -36t-92 36t-37 87zM152 -436l8 581l22 484h152l22 -484l4 -581h-208z" />
<glyph unicode="&#xa2;" d="M182 489q0 78 16.5 165t60.5 164t123 132.5t202 69.5v188h104v-184q74 -4 144.5 -17.5t130.5 -35.5v-281h-156v146q-18 4 -44 7t-44 3q-8 0 -15.5 -1t-15.5 -1v-694q72 2 137.5 16t132.5 41l48 -144q-61 -35 -144.5 -54t-173.5 -23v-160h-104v162q-117 8 -195 50 t-124 109.5t-64.5 154.5t-18.5 187zM401 494q0 -285 183 -334v667q-96 -29 -139.5 -109.5t-43.5 -223.5z" />
<glyph unicode="&#xa3;" d="M119 0l2 152q45 23 73.5 60.5t46 82.5t24.5 95t9 99l9 140h-133v125h141l10 207q6 92 32.5 169.5t77 134t127 88t183.5 31.5q109 0 198 -21.5t152 -49.5v-287h-166v164q-39 10 -80 17t-94 7q-66 0 -107.5 -18t-67.5 -53t-38 -84t-16 -111l-10 -194h354v-125h-363l-8 -148 q-2 -47 -8 -95t-18.5 -92t-31 -80t-44.5 -60h686v-154h-940z" />
<glyph unicode="&#xa5;" d="M31 1204v158h438v-158h-121q59 -127 117.5 -248.5t118.5 -246.5h8l235 495h-125v158h433v-158h-101q-66 -129 -132 -255t-132 -257h260v-90h-891v90h254q-66 131 -130 257t-128 255h-104zM139 410v96h891v-96h-344v-256h162v-154h-535v154h160v256h-334z" />
<glyph unicode="&#xa8;" horiz-adv-x="948" d="M178 1239q0 43 31 72.5t72 29.5q47 0 77.5 -28.5t30.5 -73.5q0 -43 -29.5 -72.5t-76.5 -29.5q-45 0 -75 29.5t-30 72.5zM573 1239q0 43 30 72.5t71 29.5q47 0 78.5 -28.5t31.5 -73.5q0 -43 -31.5 -72.5t-78.5 -29.5q-43 0 -72 29.5t-29 72.5z" />
<glyph unicode="&#xa9;" horiz-adv-x="1730" d="M100 680q0 156 60.5 293t164 240.5t243 163t296.5 59.5q156 0 295 -59.5t243.5 -163t165 -240.5t60.5 -293q0 -158 -60.5 -295t-165 -240.5t-243.5 -163t-295 -59.5q-158 0 -297 59.5t-242.5 163t-164 240.5t-60.5 295zM203 680q0 -135 52 -254t142 -208t211 -140 t256 -51q137 0 258 51t210 140t140.5 208t51.5 254t-51.5 254t-140.5 208t-210 140t-258 51q-135 0 -256 -51t-211 -140t-142 -208t-52 -254zM434 664q0 82 20.5 174t72 168.5t140.5 127t228 50.5q84 0 146.5 -12.5t109.5 -28.5v-250h-117v147q-66 14 -133 15 q-156 0 -228.5 -104.5t-72.5 -284.5q0 -86 15.5 -156t51 -119t95 -75.5t149.5 -26.5q20 0 49 2t62 6t65.5 9t59.5 13l24 -112q-53 -23 -137 -35t-155 -12q-125 0 -210 38t-137.5 104.5t-75 158.5t-22.5 203z" />
<glyph unicode="&#xab;" horiz-adv-x="940" d="M113 354v78l317 344l88 -65l-209 -318l209 -315l-88 -66zM446 354v78l320 344l88 -65l-209 -318l209 -315l-88 -66z" />
<glyph unicode="&#xad;" horiz-adv-x="772" d="M115 461v168h542v-168h-542z" />
<glyph unicode="&#xae;" horiz-adv-x="1214" d="M88 961q0 104 39 196t108.5 160.5t163 107.5t201.5 39q106 0 199.5 -39t162 -107.5t107.5 -160.5t39 -196t-39 -196.5t-107.5 -160t-161.5 -107.5t-200 -40q-109 0 -202 40t-161.5 107.5t-108.5 160t-40 196.5zM172 961q0 -86 33 -164t90 -135.5t135 -91t170 -33.5 t171 33.5t135.5 91t88 135t31.5 164.5q0 88 -32.5 164.5t-90 135t-135.5 92t-168 33.5t-169 -33.5t-136 -92t-90 -135t-33 -164.5zM360 672v76h56v442h-56v78h275q94 0 143 -45t49 -127q0 -39 -24.5 -86t-81.5 -72l94 -190l64 -9v-65q-18 -4 -44 -7t-44 -3q-31 0 -48.5 16 t-27.5 39l-97 203h-94v-174h64v-76h-228zM524 997h94q41 0 71 19.5t30 79.5q0 53 -28.5 74.5t-69.5 21.5h-97v-195z" />
<glyph unicode="&#xaf;" horiz-adv-x="1077" d="M182 1204v156h705v-156h-705z" />
<glyph unicode="&#xb4;" horiz-adv-x="1034" d="M395 1169l273 338l131 -129l-322 -284z" />
<glyph unicode="&#xb8;" horiz-adv-x="942" d="M334 -422q111 10 174 39t63 78q0 27 -18 43t-47 24.5t-64.5 10.5t-70.5 2l-29 43q51 66 100.5 131t100.5 129q16 -12 34.5 -21.5t34.5 -21.5q-29 -37 -61.5 -78t-61.5 -82q100 -4 161 -46t61 -126q-2 -43 -24.5 -81t-69 -66.5t-117 -45t-166.5 -16.5v84z" />
<glyph unicode="&#xbb;" horiz-adv-x="940" d="M98 78l209 315l-209 318l88 65l318 -344v-78l-318 -342zM434 78l207 315l-207 318l90 65l316 -344v-78l-318 -342z" />
<glyph unicode="&#xbf;" horiz-adv-x="950" d="M92 -166q0 109 43 180.5t121 137.5q63 51 111.5 95t82 84t51 80t17.5 85q0 29 -5 58.5t-9 70.5q45 4 87 7t89 7q10 -55 15 -97t5 -73q0 -66 -19 -120t-55 -102t-84 -95.5t-104 -98.5q-53 -47 -84.5 -88t-31.5 -98q0 -78 56 -113t148 -35q47 0 99.5 6.5t105.5 22.5v178 h164v-305q-109 -41 -213 -56.5t-184 -15.5q-195 0 -300.5 76t-105.5 209zM432 893q0 53 37 89t88 36q53 0 91 -37t38 -88q0 -47 -37 -84t-90 -37t-90 35t-37 86z" />
<glyph unicode="&#xc0;" horiz-adv-x="1427" d="M41 0v156h115l424 1249h280q100 -305 207 -624.5t207 -624.5h115v-156h-480v156h135q-16 53 -36.5 117.5t-36.5 113.5h-527q-14 -43 -34.5 -108.5t-36.5 -122.5h139v-156h-471zM381 1784l127 129l274 -338l-82 -76zM498 543h426q-41 139 -84 275t-88 276 q-8 31 -17.5 61.5t-19.5 61.5h-4l-39 -125q-18 -55 -41 -126t-47.5 -146t-47 -147.5t-38.5 -129.5z" />
<glyph unicode="&#xc1;" horiz-adv-x="1427" d="M41 0v156h115l424 1249h280q100 -305 207 -624.5t207 -624.5h115v-156h-480v156h135q-16 53 -36.5 117.5t-36.5 113.5h-527q-14 -43 -34.5 -108.5t-36.5 -122.5h139v-156h-471zM498 543h426q-41 139 -84 275t-88 276q-8 31 -17.5 61.5t-19.5 61.5h-4l-39 -125 q-18 -55 -41 -126t-47.5 -146t-47 -147.5t-38.5 -129.5zM655 1577l275 336l131 -129l-324 -285z" />
<glyph unicode="&#xc2;" horiz-adv-x="1427" d="M41 0v156h115l424 1249h280q100 -305 207 -624.5t207 -624.5h115v-156h-480v156h135q-16 53 -36.5 117.5t-36.5 113.5h-527q-14 -43 -34.5 -108.5t-36.5 -122.5h139v-156h-471zM330 1567l309 291h141l316 -287l-62 -70l-325 203l-324 -205zM498 543h426q-41 139 -84 275 t-88 276q-8 31 -17.5 61.5t-19.5 61.5h-4l-39 -125q-18 -55 -41 -126t-47.5 -146t-47 -147.5t-38.5 -129.5z" />
<glyph unicode="&#xc3;" horiz-adv-x="1427" d="M41 0v156h115l424 1249h280q100 -305 207 -624.5t207 -624.5h115v-156h-480v156h135q-16 53 -36.5 117.5t-36.5 113.5h-527q-14 -43 -34.5 -108.5t-36.5 -122.5h139v-156h-471zM362 1610q29 82 79.5 125t113.5 43q39 0 82 -12.5t85 -27t82 -26.5t70 -12l115 82l68 -53 q-27 -78 -75 -125.5t-114 -47.5q-49 0 -94 12.5t-85 28t-75.5 27.5t-66.5 12l-117 -80zM498 543h426q-41 139 -84 275t-88 276q-8 31 -17.5 61.5t-19.5 61.5h-4l-39 -125q-18 -55 -41 -126t-47.5 -146t-47 -147.5t-38.5 -129.5z" />
<glyph unicode="&#xc4;" horiz-adv-x="1427" d="M41 0v156h115l424 1249h280q100 -305 207 -624.5t207 -624.5h115v-156h-480v156h135q-16 53 -36.5 117.5t-36.5 113.5h-527q-14 -43 -34.5 -108.5t-36.5 -122.5h139v-156h-471zM418 1599q0 45 31.5 76t72.5 31q47 0 80 -29.5t33 -77.5q0 -47 -32 -75.5t-77 -28.5 q-47 0 -77.5 28.5t-30.5 75.5zM498 543h426q-41 139 -84 275t-88 276q-8 31 -17.5 61.5t-19.5 61.5h-4l-39 -125q-18 -55 -41 -126t-47.5 -146t-47 -147.5t-38.5 -129.5zM811 1599q0 45 29.5 76t70.5 31q49 0 82 -29.5t33 -77.5q0 -47 -32.5 -75.5t-82.5 -28.5 q-43 0 -71.5 28.5t-28.5 75.5z" />
<glyph unicode="&#xc5;" horiz-adv-x="1427" d="M41 0v156h115l424 1249h280q100 -305 207 -624.5t207 -624.5h115v-156h-480v156h135q-16 53 -36.5 117.5t-36.5 113.5h-527q-14 -43 -34.5 -108.5t-36.5 -122.5h139v-156h-471zM467 1747q0 45 18.5 86t50 72.5t75.5 50t94 18.5q49 0 91 -18.5t72.5 -49t48 -72.5t17.5 -87 q0 -49 -18.5 -90t-49 -72t-72.5 -48t-89 -17q-49 0 -93.5 18t-76 49t-50 72t-18.5 88zM498 543h426q-41 139 -84 275t-88 276q-8 31 -17.5 61.5t-19.5 61.5h-4l-39 -125q-18 -55 -41 -126t-47.5 -146t-47 -147.5t-38.5 -129.5zM584 1741q0 -45 33.5 -80t87.5 -35 q47 0 79.5 35t32.5 80q0 47 -31.5 84t-80.5 37q-51 0 -86 -36t-35 -85z" />
<glyph unicode="&#xc6;" horiz-adv-x="2017" d="M12 0v154h121l684 1093h-112v156h1202v-354h-166v202h-473v-446l444 10v-162l-444 9v-508h499v208h168v-362h-1034v154h141v266h-512l-163 -266h139v-154h-494zM618 573h424v666h-10z" />
<glyph unicode="&#xc7;" horiz-adv-x="1214" d="M102 696q0 117 28 247t99.5 237.5t196.5 178.5t319 71q115 0 205 -16.5t160 -41.5v-356h-164v215q-47 12 -98 17t-96 5q-111 0 -189 -39.5t-128 -112.5t-73.5 -175.5t-23.5 -227.5q0 -123 20.5 -221t70.5 -167.5t135 -106.5t214 -37q27 0 67 2t85 8t92 14.5t88 20.5 l37 -160q-70 -27 -167 -45t-192 -22q-27 -35 -54 -71t-54 -73q100 -4 160.5 -46t60.5 -126q-2 -43 -24.5 -81t-68.5 -66.5t-116.5 -45t-167.5 -16.5v84q111 10 174.5 39t63.5 78q0 27 -18.5 43t-47 24.5t-64.5 10.5t-71 2l-29 43q39 51 76 101t76 100q-164 6 -275.5 62 t-179 150.5t-97.5 222t-30 277.5z" />
<glyph unicode="&#xc8;" horiz-adv-x="1243" d="M86 0v160h139v1085h-135v158h1063v-367h-166v209h-536v-440l497 10v-162l-497 9v-502h563v215h168v-375h-1096zM381 1784l127 129l274 -338l-82 -76z" />
<glyph unicode="&#xc9;" horiz-adv-x="1243" d="M86 0v160h139v1085h-135v158h1063v-367h-166v209h-536v-440l497 10v-162l-497 9v-502h563v215h168v-375h-1096zM561 1577l275 336l131 -129l-324 -285z" />
<glyph unicode="&#xca;" horiz-adv-x="1243" d="M86 0v160h139v1085h-135v158h1063v-367h-166v209h-536v-440l497 10v-162l-497 9v-502h563v215h168v-375h-1096zM285 1567l309 291h141l316 -287l-62 -70l-325 203l-324 -205z" />
<glyph unicode="&#xcb;" horiz-adv-x="1243" d="M86 0v160h139v1085h-135v158h1063v-367h-166v209h-536v-440l497 10v-162l-497 9v-502h563v215h168v-375h-1096zM362 1599q0 45 32 76t73 31q47 0 80 -29.5t33 -77.5q0 -47 -32 -75.5t-77 -28.5q-47 0 -78 28.5t-31 75.5zM756 1599q0 45 29.5 76t70.5 31q49 0 82 -29.5 t33 -77.5q0 -47 -33 -75.5t-82 -28.5q-43 0 -71.5 28.5t-28.5 75.5z" />
<glyph unicode="&#xcc;" horiz-adv-x="780" d="M76 1784l127 129l274 -338l-82 -76zM143 0v158h133v1087h-133v160h494v-160h-135v-1087h135v-158h-494z" />
<glyph unicode="&#xcd;" horiz-adv-x="780" d="M143 0v158h133v1087h-133v160h494v-160h-135v-1087h135v-158h-494zM319 1577l275 336l131 -129l-324 -285z" />
<glyph unicode="&#xce;" horiz-adv-x="780" d="M10 1567l309 291h142l315 -287l-61 -70l-326 203l-323 -205zM143 0v158h133v1087h-133v160h494v-160h-135v-1087h135v-158h-494z" />
<glyph unicode="&#xcf;" horiz-adv-x="780" d="M86 1599q0 45 32 76t72 31q47 0 80 -29.5t33 -77.5q0 -47 -31.5 -75.5t-76.5 -28.5q-47 0 -78 28.5t-31 75.5zM143 0v158h133v1087h-133v160h494v-160h-135v-1087h135v-158h-494zM479 1599q0 45 30 76t71 31q49 0 81.5 -29.5t32.5 -77.5q0 -47 -32.5 -75.5t-81.5 -28.5 q-43 0 -72 28.5t-29 75.5z" />
<glyph unicode="&#xd0;" horiz-adv-x="1417" d="M86 0v154h143v536h-135v113h135v448h-135v154h623q178 0 293.5 -56.5t183.5 -152.5t94.5 -222t26.5 -267q0 -143 -30 -271.5t-100.5 -225.5t-188 -153.5t-294.5 -56.5h-616zM459 156h217q51 0 120.5 16t132 71.5t106.5 162t44 288.5q0 184 -40 295t-99 169.5t-129 75.5 t-127 17h-225v-448h272v-113h-272v-534z" />
<glyph unicode="&#xd1;" horiz-adv-x="1576" d="M80 156h141q0 274 1 544.5t1 544.5h-141v158h381q98 -154 171 -269.5t132 -205.5l227 -359l70 -110q35 -55 70 -113h10v899h-142v158h488v-158h-135v-1245h-217l-328 504q-61 94 -123.5 189t-124.5 194q-31 49 -61.5 99t-63.5 99q-2 0 -2 -1t-2 -1v-927h139q0 -39 1 -78 t1 -78h-491q0 39 -1 78t-1 78zM455 1616q29 82 79 125t113 43q39 0 82 -12.5t85 -26.5t82 -26.5t71 -12.5l114 82l68 -53q-27 -78 -75 -125t-113 -47q-49 0 -94.5 12t-85.5 27.5t-75.5 27.5t-66.5 12l-117 -79z" />
<glyph unicode="&#xd2;" horiz-adv-x="1443" d="M102 694q0 147 34 280.5t110 234t194.5 159.5t288.5 59q172 0 290 -59t189.5 -158.5t102 -231.5t30.5 -278q0 -154 -38.5 -284.5t-115.5 -228t-191.5 -151.5t-266.5 -54q-166 0 -284.5 51t-194.5 144t-112 224t-36 293zM338 692q0 -264 91 -402t300 -138q98 0 169 42 t117 114.5t67.5 172t21.5 213.5q0 100 -14.5 201.5t-55.5 181.5t-114.5 130t-190.5 50t-192.5 -47t-119.5 -125.5t-61.5 -181t-17.5 -211.5zM401 1784l127 129l275 -338l-82 -76z" />
<glyph unicode="&#xd3;" horiz-adv-x="1443" d="M102 694q0 147 34 280.5t110 234t194.5 159.5t288.5 59q172 0 290 -59t189.5 -158.5t102 -231.5t30.5 -278q0 -154 -38.5 -284.5t-115.5 -228t-191.5 -151.5t-266.5 -54q-166 0 -284.5 51t-194.5 144t-112 224t-36 293zM338 692q0 -264 91 -402t300 -138q98 0 169 42 t117 114.5t67.5 172t21.5 213.5q0 100 -14.5 201.5t-55.5 181.5t-114.5 130t-190.5 50t-192.5 -47t-119.5 -125.5t-61.5 -181t-17.5 -211.5zM643 1577l275 336l131 -129l-324 -285z" />
<glyph unicode="&#xd4;" horiz-adv-x="1443" d="M102 694q0 147 34 280.5t110 234t194.5 159.5t288.5 59q172 0 290 -59t189.5 -158.5t102 -231.5t30.5 -278q0 -154 -38.5 -284.5t-115.5 -228t-191.5 -151.5t-266.5 -54q-166 0 -284.5 51t-194.5 144t-112 224t-36 293zM338 692q0 -264 91 -402t300 -138q98 0 169 42 t117 114.5t67.5 172t21.5 213.5q0 100 -14.5 201.5t-55.5 181.5t-114.5 130t-190.5 50t-192.5 -47t-119.5 -125.5t-61.5 -181t-17.5 -211.5zM348 1567l309 291h142l315 -287l-61 -70l-326 203l-324 -205z" />
<glyph unicode="&#xd5;" horiz-adv-x="1443" d="M102 694q0 147 34 280.5t110 234t194.5 159.5t288.5 59q172 0 290 -59t189.5 -158.5t102 -231.5t30.5 -278q0 -154 -38.5 -284.5t-115.5 -228t-191.5 -151.5t-266.5 -54q-166 0 -284.5 51t-194.5 144t-112 224t-36 293zM338 692q0 -264 91 -402t300 -138q98 0 169 42 t117 114.5t67.5 172t21.5 213.5q0 100 -14.5 201.5t-55.5 181.5t-114.5 130t-190.5 50t-192.5 -47t-119.5 -125.5t-61.5 -181t-17.5 -211.5zM401 1620q29 82 79 125t114 43q39 0 82 -12.5t85 -26.5t82 -26.5t70 -12.5l115 82l68 -53q-27 -78 -75 -125t-114 -47q-49 0 -94 12 t-85 27.5t-76 28t-66 12.5l-117 -80z" />
<glyph unicode="&#xd6;" horiz-adv-x="1443" d="M102 694q0 147 34 280.5t110 234t194.5 159.5t288.5 59q172 0 290 -59t189.5 -158.5t102 -231.5t30.5 -278q0 -154 -38.5 -284.5t-115.5 -228t-191.5 -151.5t-266.5 -54q-166 0 -284.5 51t-194.5 144t-112 224t-36 293zM338 692q0 -264 91 -402t300 -138q98 0 169 42 t117 114.5t67.5 172t21.5 213.5q0 100 -14.5 201.5t-55.5 181.5t-114.5 130t-190.5 50t-192.5 -47t-119.5 -125.5t-61.5 -181t-17.5 -211.5zM418 1599q0 45 31.5 76t72.5 31q47 0 80 -29.5t33 -77.5q0 -47 -32 -75.5t-77 -28.5q-47 0 -77.5 28.5t-30.5 75.5zM811 1599 q0 45 29.5 76t70.5 31q49 0 82 -29.5t33 -77.5q0 -47 -32.5 -75.5t-82.5 -28.5q-43 0 -71.5 28.5t-28.5 75.5z" />
<glyph unicode="&#xd8;" horiz-adv-x="1443" d="M96 -14l152 192q-76 94 -111 224t-35 292q0 147 34 280.5t110 234t194.5 159.5t288.5 59q131 0 228.5 -33.5t168.5 -97.5l103 136h119l-158 -197q82 -104 116.5 -242.5t34.5 -292.5t-38.5 -284.5t-115.5 -228t-191.5 -151.5t-266.5 -54q-139 0 -242.5 34.5t-177.5 100.5 l-102 -131h-111zM338 692q0 -213 59 -332l598 779q-43 57 -107.5 91t-158.5 34q-117 0 -192.5 -48.5t-119.5 -128t-61.5 -183t-17.5 -212.5zM438 272q49 -63 120 -94t171 -31q98 0 169 42t117 116t67.5 174.5t21.5 214.5q0 92 -14.5 186.5t-51.5 172.5z" />
<glyph unicode="&#xd9;" horiz-adv-x="1490" d="M66 1245v160h481v-160h-139v-733q0 -180 87 -268t250 -88q160 0 248 86t88 270v733h-137v160h481v-160h-125v-735q0 -242 -136 -384t-421 -142q-147 0 -252.5 35.5t-173 103t-99.5 166t-32 221.5v735h-120zM430 1784l127 129l274 -338l-81 -76z" />
<glyph unicode="&#xda;" horiz-adv-x="1490" d="M66 1245v160h481v-160h-139v-733q0 -180 87 -268t250 -88q160 0 248 86t88 270v733h-137v160h481v-160h-125v-735q0 -242 -136 -384t-421 -142q-147 0 -252.5 35.5t-173 103t-99.5 166t-32 221.5v735h-120zM680 1577l274 336l131 -129l-323 -285z" />
<glyph unicode="&#xdb;" horiz-adv-x="1490" d="M66 1245v160h481v-160h-139v-733q0 -180 87 -268t250 -88q160 0 248 86t88 270v733h-137v160h481v-160h-125v-735q0 -242 -136 -384t-421 -142q-147 0 -252.5 35.5t-173 103t-99.5 166t-32 221.5v735h-120zM356 1567l322 284h147l328 -280l-66 -70l-337 199l-336 -201z " />
<glyph unicode="&#xdc;" horiz-adv-x="1490" d="M66 1245v160h481v-160h-139v-733q0 -180 87 -268t250 -88q160 0 248 86t88 270v733h-137v160h481v-160h-125v-735q0 -242 -136 -384t-421 -142q-147 0 -252.5 35.5t-173 103t-99.5 166t-32 221.5v735h-120zM446 1599q0 45 32 76t73 31q47 0 80 -29.5t33 -77.5 q0 -47 -32 -75.5t-77 -28.5q-47 0 -78 28.5t-31 75.5zM840 1599q0 45 29.5 76t70.5 31q49 0 82 -29.5t33 -77.5q0 -47 -33 -75.5t-82 -28.5q-43 0 -71.5 28.5t-28.5 75.5z" />
<glyph unicode="&#xdd;" horiz-adv-x="1271" d="M25 1243v162h464v-162h-118l262 -493h8l270 493h-120v162h458v-162h-114l-387 -655v-430h163v-158h-559v158h164v424l-379 661h-112zM567 1575l275 336l131 -129l-324 -285z" />
<glyph unicode="&#xde;" horiz-adv-x="1224" d="M82 0v145h139v1108h-139v152h524v-152h-160v-137h267q215 0 335.5 -97t120.5 -290q0 -68 -22.5 -139.5t-72.5 -130t-134 -96t-207 -35.5h-287v-183h160v-145h-524zM446 465h242q49 0 94 13.5t79 44t54.5 79.5t20.5 121q0 133 -72.5 194.5t-183.5 61.5h-234v-514z" />
<glyph unicode="&#xdf;" horiz-adv-x="1267" d="M45 0v150h150v630h-142v131h142v152q0 25 3 65.5t15 88t37.5 95.5t73 87t118 63.5t172.5 24.5q115 0 190 -28.5t118 -70.5t60 -89.5t17 -86.5q0 -76 -33.5 -130t-73.5 -97t-73 -79t-33 -75q0 -49 46.5 -98t115.5 -100q49 -37 94 -72t80 -78t55.5 -96t20.5 -125 q0 -57 -21.5 -109.5t-66.5 -92.5t-113.5 -63.5t-162.5 -23.5q-78 0 -158 13.5t-139 36.5v258h137v-136q53 -16 92 -21t65 -5q72 0 113 35.5t41 91.5q0 49 -17.5 86t-44 67.5t-59.5 57t-63 55.5q-37 35 -75 70.5t-68.5 74.5t-50 80t-19.5 86q0 59 32.5 105.5t71.5 87.5t72 80 t33 86q0 14 -5.5 38.5t-23.5 48t-55 41t-101 17.5q-55 0 -93 -17.5t-61.5 -48t-34.5 -71.5t-11 -86v-1104h-367z" />
<glyph unicode="&#xe0;" horiz-adv-x="1099" d="M68 270q0 61 21.5 112.5t68.5 90.5t120.5 64.5t178.5 31.5l241 17v59q0 113 -43 160t-157 47q-74 0 -155 -14.5t-153 -38.5l-20 69l-20 70q86 39 193.5 59.5t205.5 20.5q168 0 262 -75t94 -263v-526h156l12 -123q-20 -12 -51 -20.5t-63.5 -13.5t-63.5 -7t-51 -2 q-59 0 -97 22.5t-40 102.5q-2 0 -2 1t-3 1q-55 -49 -106 -76t-95 -40t-79 -15t-57 -2q-90 0 -147.5 28.5t-91.5 71.5t-46 94t-12 94zM279 1378l129 129l274 -338l-80 -75zM295 293q0 -80 39 -118t127 -38q55 0 119.5 29t113.5 76v225l-223 -16q-86 -6 -131 -50.5t-45 -107.5 z" />
<glyph unicode="&#xe1;" horiz-adv-x="1099" d="M68 270q0 61 21.5 112.5t68.5 90.5t120.5 64.5t178.5 31.5l241 17v59q0 113 -43 160t-157 47q-74 0 -155 -14.5t-153 -38.5l-20 69l-20 70q86 39 193.5 59.5t205.5 20.5q168 0 262 -75t94 -263v-526h156l12 -123q-20 -12 -51 -20.5t-63.5 -13.5t-63.5 -7t-51 -2 q-59 0 -97 22.5t-40 102.5q-2 0 -2 1t-3 1q-55 -49 -106 -76t-95 -40t-79 -15t-57 -2q-90 0 -147.5 28.5t-91.5 71.5t-46 94t-12 94zM295 293q0 -80 39 -118t127 -38q55 0 119.5 29t113.5 76v225l-223 -16q-86 -6 -131 -50.5t-45 -107.5zM410 1169l272 338l131 -129 l-321 -284z" />
<glyph unicode="&#xe2;" horiz-adv-x="1099" d="M68 270q0 61 21.5 112.5t68.5 90.5t120.5 64.5t178.5 31.5l241 17v59q0 113 -43 160t-157 47q-74 0 -155 -14.5t-153 -38.5l-20 69l-20 70q86 39 193.5 59.5t205.5 20.5q168 0 262 -75t94 -263v-526h156l12 -123q-20 -12 -51 -20.5t-63.5 -13.5t-63.5 -7t-51 -2 q-59 0 -97 22.5t-40 102.5q-2 0 -2 1t-3 1q-55 -49 -106 -76t-95 -40t-79 -15t-57 -2q-90 0 -147.5 28.5t-91.5 71.5t-46 94t-12 94zM156 1155l311 299h141l314 -297l-60 -70l-325 205l-324 -205zM295 293q0 -80 39 -118t127 -38q55 0 119.5 29t113.5 76v225l-223 -16 q-86 -6 -131 -50.5t-45 -107.5z" />
<glyph unicode="&#xe3;" horiz-adv-x="1099" d="M68 270q0 61 21.5 112.5t68.5 90.5t120.5 64.5t178.5 31.5l241 17v59q0 113 -43 160t-157 47q-74 0 -155 -14.5t-153 -38.5l-20 69l-20 70q86 39 193.5 59.5t205.5 20.5q168 0 262 -75t94 -263v-526h156l12 -123q-20 -12 -51 -20.5t-63.5 -13.5t-63.5 -7t-51 -2 q-59 0 -97 22.5t-40 102.5q-2 0 -2 1t-3 1q-55 -49 -106 -76t-95 -40t-79 -15t-57 -2q-90 0 -147.5 28.5t-91.5 71.5t-46 94t-12 94zM197 1221q29 82 79 125t113 43q39 0 82 -12.5t85 -27t82 -26.5t71 -12l114 82l68 -54q-27 -78 -75 -125t-114 -47q-49 0 -94 12.5t-85 28 t-75.5 27.5t-66.5 12l-117 -80zM295 293q0 -80 39 -118t127 -38q55 0 119.5 29t113.5 76v225l-223 -16q-86 -6 -131 -50.5t-45 -107.5z" />
<glyph unicode="&#xe4;" horiz-adv-x="1099" d="M68 270q0 61 21.5 112.5t68.5 90.5t120.5 64.5t178.5 31.5l241 17v59q0 113 -43 160t-157 47q-74 0 -155 -14.5t-153 -38.5l-20 69l-20 70q86 39 193.5 59.5t205.5 20.5q168 0 262 -75t94 -263v-526h156l12 -123q-20 -12 -51 -20.5t-63.5 -13.5t-63.5 -7t-51 -2 q-59 0 -97 22.5t-40 102.5q-2 0 -2 1t-3 1q-55 -49 -106 -76t-95 -40t-79 -15t-57 -2q-90 0 -147.5 28.5t-91.5 71.5t-46 94t-12 94zM260 1239q0 43 31 72.5t71 29.5q47 0 78 -28.5t31 -73.5q0 -43 -29.5 -72.5t-76.5 -29.5q-45 0 -75 29.5t-30 72.5zM295 293q0 -80 39 -118 t127 -38q55 0 119.5 29t113.5 76v225l-223 -16q-86 -6 -131 -50.5t-45 -107.5zM655 1239q0 43 30 72.5t71 29.5q47 0 78.5 -28.5t31.5 -73.5q0 -43 -31.5 -72.5t-78.5 -29.5q-43 0 -72 29.5t-29 72.5z" />
<glyph unicode="&#xe5;" horiz-adv-x="1099" d="M68 270q0 61 21.5 112.5t68.5 90.5t120.5 64.5t178.5 31.5l241 17v59q0 113 -43 160t-157 47q-74 0 -155 -14.5t-153 -38.5l-20 69l-20 70q86 39 193.5 59.5t205.5 20.5q168 0 262 -75t94 -263v-526h156l12 -123q-20 -12 -51 -20.5t-63.5 -13.5t-63.5 -7t-51 -2 q-59 0 -97 22.5t-40 102.5q-2 0 -2 1t-3 1q-55 -49 -106 -76t-95 -40t-79 -15t-57 -2q-90 0 -147.5 28.5t-91.5 71.5t-46 94t-12 94zM295 293q0 -80 39 -118t127 -38q55 0 119.5 29t113.5 76v225l-223 -16q-86 -6 -131 -50.5t-45 -107.5zM303 1354q0 45 18.5 86t50 72.5 t76 50t93.5 18.5t91 -18.5t72.5 -49t48 -72.5t17.5 -87q0 -49 -18.5 -90t-49 -72t-72.5 -48.5t-89 -17.5q-49 0 -93.5 18.5t-76 49.5t-50 72t-18.5 88zM420 1348q0 -45 33.5 -80t87.5 -35q47 0 79.5 35t32.5 80q0 47 -31.5 83.5t-80.5 36.5q-51 0 -86 -35.5t-35 -84.5z" />
<glyph unicode="&#xe6;" horiz-adv-x="1656" d="M66 270q0 59 21.5 114.5t65.5 97.5t112.5 66.5t162.5 24.5h295v74q0 117 -53.5 162t-169.5 45q-82 0 -163 -14.5t-153 -38.5l-41 139q86 39 194.5 60.5t207.5 21.5q100 0 185 -35t122 -117q49 68 128 111t198 43q145 0 227 -54.5t123 -131t51 -158.5t10 -137v-80h-651 q0 -68 12.5 -125t43 -99t82.5 -67t130 -25q84 0 157 16.5t155 49.5l45 -133q-92 -49 -188.5 -71.5t-194.5 -22.5q-145 0 -230.5 40t-136.5 113q-74 -57 -139.5 -89t-121.5 -47t-101 -18t-76 -3q-94 0 -153.5 29.5t-94.5 72.5t-48 93t-13 93zM293 297q0 -168 172 -168 q25 0 61.5 7t76.5 22.5t81 36t72 49.5q-16 49 -24.5 103t-10.5 114h-229q-98 0 -148.5 -44t-50.5 -120zM942 573h449q0 66 -10.5 120.5t-35 92t-65.5 59t-102 21.5q-63 0 -106.5 -24.5t-71 -64.5t-41 -93.5t-17.5 -110.5z" />
<glyph unicode="&#xe7;" horiz-adv-x="964" d="M82 489q0 82 18.5 176.5t70.5 174.5t145.5 132t240.5 52q84 0 162 -13.5t143 -39.5v-281h-155v146q-18 4 -44 7t-45 3q-168 0 -242.5 -83t-74.5 -269q0 -176 68.5 -260t201.5 -84q76 0 145.5 14t141.5 43l47 -144q-66 -35 -152.5 -55t-179.5 -24l-41 -54q-20 -27 -38 -55 q100 -4 160.5 -46t60.5 -126q-2 -43 -24.5 -81t-69 -66.5t-117 -45t-166.5 -16.5v84q111 10 174 39t63 78q0 27 -18 43t-47 24.5t-64.5 10.5t-70.5 2l-29 43l129 170q-115 10 -190.5 52t-120.5 109.5t-63.5 154.5t-18.5 185z" />
<glyph unicode="&#xe8;" horiz-adv-x="1034" d="M82 498q0 74 18.5 165t69.5 171.5t141 135t232 54.5q145 0 228 -54.5t125 -131t52 -158.5t10 -137v-99h-655q0 -68 12.5 -123t43 -94t83 -60.5t129.5 -21.5q86 0 158 16.5t154 51.5l55 -137q-94 -49 -193.5 -71.5t-199.5 -22.5q-141 0 -230.5 43t-141.5 114.5t-71.5 165 t-19.5 193.5zM238 1378l129 129l274 -338l-80 -75zM307 596h447q-2 55 -12.5 103.5t-35 85t-64.5 58t-101 21.5q-59 0 -102.5 -23.5t-71 -61.5t-43 -86t-17.5 -97z" />
<glyph unicode="&#xe9;" horiz-adv-x="1034" d="M82 498q0 74 18.5 165t69.5 171.5t141 135t232 54.5q145 0 228 -54.5t125 -131t52 -158.5t10 -137v-99h-655q0 -68 12.5 -123t43 -94t83 -60.5t129.5 -21.5q86 0 158 16.5t154 51.5l55 -137q-94 -49 -193.5 -71.5t-199.5 -22.5q-141 0 -230.5 43t-141.5 114.5t-71.5 165 t-19.5 193.5zM307 596h447q-2 55 -12.5 103.5t-35 85t-64.5 58t-101 21.5q-59 0 -102.5 -23.5t-71 -61.5t-43 -86t-17.5 -97zM424 1169l272 338l131 -129l-321 -284z" />
<glyph unicode="&#xea;" horiz-adv-x="1034" d="M82 498q0 74 18.5 165t69.5 171.5t141 135t232 54.5q145 0 228 -54.5t125 -131t52 -158.5t10 -137v-99h-655q0 -68 12.5 -123t43 -94t83 -60.5t129.5 -21.5q86 0 158 16.5t154 51.5l55 -137q-94 -49 -193.5 -71.5t-199.5 -22.5q-141 0 -230.5 43t-141.5 114.5t-71.5 165 t-19.5 193.5zM162 1155l311 299h141l314 -297l-60 -70l-325 205l-324 -205zM307 596h447q-2 55 -12.5 103.5t-35 85t-64.5 58t-101 21.5q-59 0 -102.5 -23.5t-71 -61.5t-43 -86t-17.5 -97z" />
<glyph unicode="&#xeb;" horiz-adv-x="1034" d="M82 498q0 74 18.5 165t69.5 171.5t141 135t232 54.5q145 0 228 -54.5t125 -131t52 -158.5t10 -137v-99h-655q0 -68 12.5 -123t43 -94t83 -60.5t129.5 -21.5q86 0 158 16.5t154 51.5l55 -137q-94 -49 -193.5 -71.5t-199.5 -22.5q-141 0 -230.5 43t-141.5 114.5t-71.5 165 t-19.5 193.5zM238 1239q0 43 30.5 72.5t71.5 29.5q47 0 78 -28.5t31 -73.5q0 -43 -30 -72.5t-77 -29.5q-45 0 -74.5 29.5t-29.5 72.5zM307 596h447q-2 55 -12.5 103.5t-35 85t-64.5 58t-101 21.5q-59 0 -102.5 -23.5t-71 -61.5t-43 -86t-17.5 -97zM633 1239q0 43 29.5 72.5 t70.5 29.5q47 0 79 -28.5t32 -73.5q0 -43 -32 -72.5t-79 -29.5q-43 0 -71.5 29.5t-28.5 72.5z" />
<glyph unicode="&#xec;" horiz-adv-x="645" d="M4 1378l129 129l275 -338l-80 -75zM100 854v147h330v-843h148v-131q-43 -20 -99.5 -30.5t-97.5 -10.5q-88 0 -126 35.5t-40 125.5v707h-115z" />
<glyph unicode="&#xed;" horiz-adv-x="645" d="M100 854v147h330v-843h148v-131q-43 -20 -99.5 -30.5t-97.5 -10.5q-88 0 -126 35.5t-40 125.5v707h-115zM182 1169l273 338l131 -129l-322 -284z" />
<glyph unicode="&#xee;" horiz-adv-x="684" d="M-41 1155l311 299h142l313 -297l-59 -70l-326 205l-324 -205zM121 854v147h330v-843h147v-131q-43 -20 -99.5 -30.5t-97.5 -10.5q-88 0 -125.5 35.5t-39.5 125.5v707h-115z" />
<glyph unicode="&#xef;" horiz-adv-x="645" d="M10 1239q0 43 31 72.5t72 29.5q47 0 77.5 -28.5t30.5 -73.5q0 -43 -29.5 -72.5t-76.5 -29.5q-45 0 -75 29.5t-30 72.5zM100 854v147h330v-843h148v-131q-43 -20 -99.5 -30.5t-97.5 -10.5q-88 0 -126 35.5t-40 125.5v707h-115zM406 1239q0 43 29.5 72.5t70.5 29.5 q47 0 78.5 -28.5t31.5 -73.5q0 -43 -31.5 -72.5t-78.5 -29.5q-43 0 -71.5 29.5t-28.5 72.5z" />
<glyph unicode="&#xf0;" horiz-adv-x="1105" d="M86 444q0 94 28.5 181.5t86 155t139.5 108.5t190 41q53 0 117 -11.5t123 -44.5q-55 166 -154 283l-184 -125l-53 74l174 117q-90 86 -201 159l64 115q156 -74 274 -180l182 121l54 -74l-166 -111q137 -141 203.5 -323t58.5 -398q-2 -90 -24.5 -186t-76 -177t-146.5 -133 t-236 -52q-137 0 -225.5 43t-138.5 109.5t-69.5 148t-19.5 159.5zM301 453q0 -51 8 -105.5t35 -100.5t76 -76t131 -30q80 0 130 38t77.5 93.5t38 121t10.5 120.5q0 51 -5 95t-16 98q-66 43 -126 56t-107 13q-70 0 -118 -29.5t-77.5 -75.5t-43 -104.5t-13.5 -113.5z" />
<glyph unicode="&#xf1;" horiz-adv-x="1251" d="M43 846v155h360v-88l11 -2q86 55 172 84t162 29q109 0 170 -36t90.5 -87t37 -109.5t7.5 -101.5v-534h151v-129q-43 -20 -102.5 -29.5t-100.5 -9.5q-61 0 -94 19.5t-49 46t-19 53t-3 43.5v499q0 51 -6.5 88t-22.5 61.5t-49 37t-84 12.5q-63 0 -138 -28.5t-133 -63.5v-756 h-217v846h-143zM233 1243q29 82 79 125t114 43q39 0 82 -12.5t85 -26.5t82 -26.5t70 -12.5l115 82l68 -53q-27 -78 -75 -125t-114 -47q-49 0 -94 12t-85 27.5t-75.5 28t-66.5 12.5l-117 -80z" />
<glyph unicode="&#xf2;" horiz-adv-x="1101" d="M82 496q0 102 26.5 197t84 168t147.5 117t217 44q129 0 218 -44t143.5 -115.5t78 -167t23.5 -195.5t-24.5 -193.5t-81 -165t-147.5 -114.5t-226 -43q-127 0 -214 41t-141.5 111.5t-79 163t-24.5 196.5zM246 1378l129 129l274 -338l-80 -75zM307 496q0 -70 9.5 -133.5 t36 -111.5t74.5 -77t128 -29q74 0 121 31t73.5 80t37 111.5t10.5 128.5q0 63 -9.5 127.5t-35 117t-71.5 85t-120 32.5q-76 0 -125 -31.5t-77.5 -83t-40 -115.5t-11.5 -132z" />
<glyph unicode="&#xf3;" horiz-adv-x="1101" d="M82 496q0 102 26.5 197t84 168t147.5 117t217 44q129 0 218 -44t143.5 -115.5t78 -167t23.5 -195.5t-24.5 -193.5t-81 -165t-147.5 -114.5t-226 -43q-127 0 -214 41t-141.5 111.5t-79 163t-24.5 196.5zM307 496q0 -70 9.5 -133.5t36 -111.5t74.5 -77t128 -29q74 0 121 31 t73.5 80t37 111.5t10.5 128.5q0 63 -9.5 127.5t-35 117t-71.5 85t-120 32.5q-76 0 -125 -31.5t-77.5 -83t-40 -115.5t-11.5 -132zM438 1169l273 338l131 -129l-322 -284z" />
<glyph unicode="&#xf4;" horiz-adv-x="1101" d="M82 496q0 102 26.5 197t84 168t147.5 117t217 44q129 0 218 -44t143.5 -115.5t78 -167t23.5 -195.5t-24.5 -193.5t-81 -165t-147.5 -114.5t-226 -43q-127 0 -214 41t-141.5 111.5t-79 163t-24.5 196.5zM174 1155l311 299h142l313 -297l-59 -70l-326 205l-324 -205z M307 496q0 -70 9.5 -133.5t36 -111.5t74.5 -77t128 -29q74 0 121 31t73.5 80t37 111.5t10.5 128.5q0 63 -9.5 127.5t-35 117t-71.5 85t-120 32.5q-76 0 -125 -31.5t-77.5 -83t-40 -115.5t-11.5 -132z" />
<glyph unicode="&#xf5;" horiz-adv-x="1101" d="M82 496q0 102 26.5 197t84 168t147.5 117t217 44q129 0 218 -44t143.5 -115.5t78 -167t23.5 -195.5t-24.5 -193.5t-81 -165t-147.5 -114.5t-226 -43q-127 0 -214 41t-141.5 111.5t-79 163t-24.5 196.5zM225 1217q29 82 79 124.5t114 42.5q39 0 82 -12t85 -26.5t82 -26.5 t70 -12l115 82l68 -54q-27 -78 -75 -125t-114 -47q-49 0 -94 12.5t-85 28t-76 27.5t-66 12l-117 -80zM307 496q0 -70 9.5 -133.5t36 -111.5t74.5 -77t128 -29q74 0 121 31t73.5 80t37 111.5t10.5 128.5q0 63 -9.5 127.5t-35 117t-71.5 85t-120 32.5q-76 0 -125 -31.5 t-77.5 -83t-40 -115.5t-11.5 -132z" />
<glyph unicode="&#xf6;" horiz-adv-x="1101" d="M82 496q0 102 26.5 197t84 168t147.5 117t217 44q129 0 218 -44t143.5 -115.5t78 -167t23.5 -195.5t-24.5 -193.5t-81 -165t-147.5 -114.5t-226 -43q-127 0 -214 41t-141.5 111.5t-79 163t-24.5 196.5zM254 1239q0 43 30.5 72.5t71.5 29.5q47 0 78 -28.5t31 -73.5 q0 -43 -29.5 -72.5t-77.5 -29.5q-45 0 -74.5 29.5t-29.5 72.5zM307 496q0 -70 9.5 -133.5t36 -111.5t74.5 -77t128 -29q74 0 121 31t73.5 80t37 111.5t10.5 128.5q0 63 -9.5 127.5t-35 117t-71.5 85t-120 32.5q-76 0 -125 -31.5t-77.5 -83t-40 -115.5t-11.5 -132zM649 1239 q0 43 30 72.5t71 29.5q47 0 78.5 -28.5t31.5 -73.5q0 -43 -31.5 -72.5t-78.5 -29.5q-43 0 -72 29.5t-29 72.5z" />
<glyph unicode="&#xf8;" horiz-adv-x="1101" d="M74 -14l114 137q-59 72 -82.5 168t-23.5 205q0 102 26.5 197t83 168t146.5 117t217 44q98 0 171 -25.5t126 -70.5q18 25 37.5 47t38.5 47q23 0 47 1t49 1l-119 -145q61 -74 88 -172.5t27 -206.5q0 -100 -24.5 -192.5t-81 -163t-148.5 -113.5t-227 -43q-190 0 -295 86 l-70 -84q-27 0 -51 -1t-49 -1zM305 508q0 -55 6 -112.5t29 -104.5q96 123 190.5 245.5t192.5 245.5q-29 35 -69 56.5t-99 21.5q-72 0 -120 -30.5t-76.5 -81t-41 -114t-12.5 -126.5zM373 213q29 -33 72.5 -52.5t109.5 -19.5q74 0 121 31t72.5 81t35 113.5t9.5 129.5 q0 53 -7.5 110.5t-29.5 104.5q-98 -125 -191.5 -249t-191.5 -249z" />
<glyph unicode="&#xf9;" horiz-adv-x="1230" d="M45 844v157h363v-667q0 -43 4 -76t19 -55.5t44 -33.5t78 -11t124 24.5t142 87.5v574h-129v157h348v-845h142v-129q-57 -23 -110.5 -31t-88.5 -8q-76 0 -111.5 27.5t-44.5 101.5q-92 -84 -182 -112t-156 -28q-96 0 -154.5 27t-90 72t-43 102.5t-11.5 118.5v547h-143z M293 1378l129 129l274 -338l-80 -75z" />
<glyph unicode="&#xfa;" horiz-adv-x="1230" d="M45 844v157h363v-667q0 -43 4 -76t19 -55.5t44 -33.5t78 -11t124 24.5t142 87.5v574h-129v157h348v-845h142v-129q-57 -23 -110.5 -31t-88.5 -8q-76 0 -111.5 27.5t-44.5 101.5q-92 -84 -182 -112t-156 -28q-96 0 -154.5 27t-90 72t-43 102.5t-11.5 118.5v547h-143z M457 1169l272 338l131 -129l-321 -284z" />
<glyph unicode="&#xfb;" horiz-adv-x="1230" d="M45 844v157h363v-667q0 -43 4 -76t19 -55.5t44 -33.5t78 -11t124 24.5t142 87.5v574h-129v157h348v-845h142v-129q-57 -23 -110.5 -31t-88.5 -8q-76 0 -111.5 27.5t-44.5 101.5q-92 -84 -182 -112t-156 -28q-96 0 -154.5 27t-90 72t-43 102.5t-11.5 118.5v547h-143z M213 1155l311 299h142l313 -297l-59 -70l-326 205l-324 -205z" />
<glyph unicode="&#xfc;" horiz-adv-x="1230" d="M45 844v157h363v-667q0 -43 4 -76t19 -55.5t44 -33.5t78 -11t124 24.5t142 87.5v574h-129v157h348v-845h142v-129q-57 -23 -110.5 -31t-88.5 -8q-76 0 -111.5 27.5t-44.5 101.5q-92 -84 -182 -112t-156 -28q-96 0 -154.5 27t-90 72t-43 102.5t-11.5 118.5v547h-143z M289 1239q0 43 30.5 72.5t71.5 29.5q47 0 78 -28.5t31 -73.5q0 -43 -30 -72.5t-77 -29.5q-45 0 -74.5 29.5t-29.5 72.5zM684 1239q0 43 29.5 72.5t70.5 29.5q47 0 79 -28.5t32 -73.5q0 -43 -32 -72.5t-79 -29.5q-43 0 -71.5 29.5t-28.5 72.5z" />
<glyph unicode="&#xfd;" horiz-adv-x="1148" d="M35 840v161h264q8 -25 28.5 -93t48 -159.5t58.5 -191.5t56.5 -187t44 -149.5t22.5 -77.5h10q4 14 21.5 66.5t40 123t49.5 151.5t50.5 154t41.5 129t27 77h-121v157h426v-157h-101l-364 -1061q-20 -53 -44 -94t-56.5 -69t-78.5 -43t-114 -15q-23 0 -86 5t-147 32l32 172 q45 -10 86 -15.5t76 -5.5q49 0 77 12.5t46 42t36.5 79.5t49.5 128h-108q-68 207 -134.5 413t-134.5 415h-102zM463 1169l272 338l131 -129l-321 -284z" />
<glyph unicode="&#xfe;" horiz-adv-x="1163" d="M18 1255v150h369v-496l2 -2q61 49 144 78t157 29q111 0 186.5 -40t120.5 -107.5t64.5 -158t19.5 -190.5q0 -117 -22.5 -215t-71.5 -170t-128 -112.5t-193 -40.5q-29 0 -64 4t-71.5 12t-72.5 20.5t-67 30.5v-328h160v-145h-528v145h149v1536h-154zM391 207 q16 -12 43 -23.5t58.5 -20.5t65.5 -15.5t65 -6.5q47 0 90 17.5t75.5 61.5t52 117t19.5 183q0 98 -17.5 161.5t-48 101.5t-72.5 53.5t-91 15.5q-29 0 -62.5 -8t-67.5 -21.5t-62.5 -30t-47.5 -32.5v-553z" />
<glyph unicode="&#xff;" horiz-adv-x="1148" d="M35 840v161h264q8 -25 28.5 -93t48 -159.5t58.5 -191.5t56.5 -187t44 -149.5t22.5 -77.5h10q4 14 21.5 66.5t40 123t49.5 151.5t50.5 154t41.5 129t27 77h-121v157h426v-157h-101l-364 -1061q-20 -53 -44 -94t-56.5 -69t-78.5 -43t-114 -15q-23 0 -86 5t-147 32l32 172 q45 -10 86 -15.5t76 -5.5q49 0 77 12.5t46 42t36.5 79.5t49.5 128h-108q-68 207 -134.5 413t-134.5 415h-102zM252 1239q0 43 30.5 72.5t71.5 29.5q47 0 78 -28.5t31 -73.5q0 -43 -30 -72.5t-77 -29.5q-45 0 -74.5 29.5t-29.5 72.5zM647 1239q0 43 30 72.5t71 29.5 q47 0 78.5 -28.5t31.5 -73.5q0 -43 -31.5 -72.5t-78.5 -29.5q-43 0 -72 29.5t-29 72.5z" />
<glyph unicode="&#x106;" horiz-adv-x="1214" d="M102 696q0 117 28 247t99.5 237.5t196.5 178.5t319 71q115 0 205 -16.5t160 -41.5v-356h-164v215q-47 12 -98 17t-96 5q-111 0 -189 -39.5t-128 -112.5t-73.5 -175.5t-23.5 -227.5q0 -123 20.5 -221t70.5 -167.5t135 -106.5t214 -37q27 0 67 2t85 8t92 14.5t88 20.5 l37 -160q-41 -16 -91 -28.5t-105.5 -21.5t-112 -14t-107.5 -5q-178 0 -299 54t-193.5 149.5t-104.5 226t-32 284.5zM637 1577l274 336l131 -129l-323 -285z" />
<glyph unicode="&#x107;" horiz-adv-x="964" d="M82 489q0 82 18.5 176.5t70.5 174.5t145.5 132t240.5 52q84 0 162 -13.5t143 -39.5v-281h-155v146q-18 4 -44 7t-45 3q-168 0 -242.5 -83t-74.5 -269q0 -176 68.5 -260t201.5 -84q76 0 145.5 14t141.5 43l47 -144q-70 -39 -165 -59t-195 -20q-135 0 -224.5 38.5 t-142.5 107.5t-74.5 161t-21.5 198zM395 1169l273 338l131 -129l-322 -284z" />
<glyph unicode="&#x10c;" horiz-adv-x="1214" d="M102 696q0 117 28 247t99.5 237.5t196.5 178.5t319 71q115 0 205 -16.5t160 -41.5v-356h-164v215q-47 12 -98 17t-96 5q-111 0 -189 -39.5t-128 -112.5t-73.5 -175.5t-23.5 -227.5q0 -123 20.5 -221t70.5 -167.5t135 -106.5t214 -37q27 0 67 2t85 8t92 14.5t88 20.5 l37 -160q-41 -16 -91 -28.5t-105.5 -21.5t-112 -14t-107.5 -5q-178 0 -299 54t-193.5 149.5t-104.5 226t-32 284.5zM330 1800l55 66l326 -205l325 207l60 -72l-316 -285h-139z" />
<glyph unicode="&#x10d;" horiz-adv-x="964" d="M82 489q0 82 18.5 176.5t70.5 174.5t145.5 132t240.5 52q84 0 162 -13.5t143 -39.5v-281h-155v146q-18 4 -44 7t-45 3q-168 0 -242.5 -83t-74.5 -269q0 -176 68.5 -260t201.5 -84q76 0 145.5 14t141.5 43l47 -144q-70 -39 -165 -59t-195 -20q-135 0 -224.5 38.5 t-142.5 107.5t-74.5 161t-21.5 198zM174 1415l57 68l324 -205l328 203l57 -70l-313 -295h-142z" />
<glyph unicode="&#x110;" horiz-adv-x="1417" d="M86 0v154h143v536h-135v113h135v448h-135v154h623q178 0 293.5 -56.5t183.5 -152.5t94.5 -222t26.5 -267q0 -143 -30 -271.5t-100.5 -225.5t-188 -153.5t-294.5 -56.5h-616zM459 156h217q51 0 120.5 16t132 71.5t106.5 162t44 288.5q0 184 -40 295t-99 169.5t-129 75.5 t-127 17h-225v-448h272v-113h-272v-534z" />
<glyph unicode="&#x111;" horiz-adv-x="1171" d="M82 475q0 113 22.5 208t71.5 163.5t128 107.5t194 39q27 0 62.5 -4t72.5 -13t72.5 -22.5t66.5 -31.5v163h-289v101h289v133h-160v141h379v-274h146v-101h-146v-938h150v-147h-361v88l-4 6q-61 -51 -145 -80.5t-158 -29.5q-111 0 -186.5 38.5t-120.5 105.5t-64.5 156 t-19.5 191zM303 477q0 -98 17.5 -162.5t48 -101.5t72.5 -51.5t91 -14.5q27 0 62 8.5t67.5 20.5t62.5 28.5t48 33.5v526q-16 12 -43 24.5t-58.5 21.5t-65.5 15t-64 6q-47 0 -90 -15t-76 -55t-52.5 -109t-19.5 -175z" />
<glyph unicode="&#x131;" horiz-adv-x="645" d="M100 854v147h330v-843h148v-131q-43 -20 -99.5 -30.5t-97.5 -10.5q-88 0 -126 35.5t-40 125.5v707h-115z" />
<glyph unicode="&#x152;" horiz-adv-x="1732" d="M94 694q0 147 34 280.5t109.5 234t195.5 159.5t290 59q55 0 105.5 -7t95.5 -19h716v-354h-163v198h-480v-440q111 2 222.5 3t222.5 5v-160q-111 2 -222.5 3t-222.5 1v-501h506v206h168v-362h-790q-37 -6 -77 -10t-81 -4q-168 0 -287 50t-194.5 142t-111.5 223t-36 293z M330 690q0 -266 91 -405.5t302 -139.5h22q12 0 25 2v1113q-10 0 -22.5 1t-28.5 1q-117 0 -192.5 -49.5t-118.5 -129t-60.5 -182t-17.5 -211.5z" />
<glyph unicode="&#x153;" horiz-adv-x="1746" d="M78 496q0 102 26.5 197t84 168t147.5 117t217 44q133 0 217 -50t133 -132q47 78 132 132t225 54q145 0 229 -54t126 -131t52 -158t10 -136v-78h-657q0 -66 13.5 -124t44 -101t82.5 -68.5t130 -25.5q84 0 157 16t155 51l49 -133q-92 -49 -189.5 -71.5t-197.5 -22.5 q-141 0 -227.5 45t-133.5 123q-53 -78 -141 -126t-223 -48q-127 0 -215 41t-142.5 111.5t-79 163t-24.5 196.5zM303 496q0 -70 9.5 -134.5t37 -113.5t75.5 -78t128 -29q74 0 121 31t73.5 82t36 113.5t9.5 128.5q0 63 -9.5 128.5t-36 118t-72.5 86t-122 33.5t-124 -32.5 t-75.5 -85t-39 -117.5t-11.5 -131zM1024 575h453q0 66 -11.5 120.5t-36 93t-65.5 60t-102 21.5q-63 0 -107.5 -24.5t-72 -64.5t-41 -94.5t-17.5 -111.5z" />
<glyph unicode="&#x160;" d="M76 383h164l2 -168q76 -35 153.5 -48t145.5 -13q80 0 139 20.5t98 52t58.5 73.5t19.5 85q0 63 -23.5 102t-65.5 63.5t-98.5 42t-123.5 36.5q-94 20 -176 51t-143.5 75t-97.5 107.5t-36 151.5q2 100 41 177t105.5 128t155.5 77.5t194 26.5q45 0 98 -4t107.5 -13 t107.5 -26.5t98 -42.5l2 -293h-165l-2 170q-47 20 -118 28.5t-126 8.5q-53 0 -101.5 -13t-84 -40t-57 -66.5t-21.5 -91.5q0 -49 25.5 -84.5t68.5 -62.5t99 -46.5t118 -33.5q86 -20 169 -48t148.5 -74t105.5 -116.5t40 -179.5t-40 -186.5t-111.5 -128.5t-172 -74.5 t-221.5 -23.5q-119 0 -244 22.5t-233 79.5q0 74 -1 148.5t-1 150.5zM229 1800l56 66l325 -205l326 207l59 -72l-315 -285h-139z" />
<glyph unicode="&#x161;" horiz-adv-x="950" d="M61 305h158l6 -127q41 -23 98.5 -32t104.5 -9q92 0 156.5 30t64.5 103q0 37 -15.5 61.5t-42 42t-62 30t-74.5 24.5q-70 20 -137.5 40.5t-121 53.5t-86 81t-32.5 124q0 78 29.5 133t82 91t125 53.5t158.5 17.5q88 0 175 -17.5t155 -58.5q0 -59 1 -119.5t3 -121.5h-162 l-4 133q-70 29 -154 28q-78 0 -132 -29.5t-54 -101.5q0 -31 19.5 -52t49 -36.5t62.5 -26t62 -18.5q61 -18 128.5 -37.5t124 -54.5t92 -91.5t35.5 -148.5q0 -74 -30.5 -128t-87 -89t-136 -52t-176.5 -17q-88 0 -192.5 15t-185.5 62zM92 1415l58 68l323 -205l328 203l57 -70 l-313 -295h-142z" />
<glyph unicode="&#x178;" horiz-adv-x="1271" d="M25 1243v162h464v-162h-118l262 -493h8l270 493h-120v162h458v-162h-114l-387 -655v-430h163v-158h-559v158h164v424l-379 661h-112zM330 1599q0 45 31.5 76t72.5 31q47 0 80 -29.5t33 -77.5q0 -47 -32 -75.5t-77 -28.5q-47 0 -77.5 28.5t-30.5 75.5zM723 1599 q0 45 29.5 76t70.5 31q49 0 82 -29.5t33 -77.5q0 -47 -33 -75.5t-82 -28.5q-43 0 -71.5 28.5t-28.5 75.5z" />
<glyph unicode="&#x17d;" horiz-adv-x="1157" d="M47 0v156l752 1089h-535v-219h-168v379h977v-156l-754 -1089h625v248h170v-408h-1067zM229 1800l56 66l325 -205l326 207l59 -72l-315 -285h-139z" />
<glyph unicode="&#x17e;" horiz-adv-x="972" d="M53 0v137l574 713h-379v-158h-156v309h803v-135l-573 -716h434v153h157v-303h-860zM106 1415l58 68l323 -205l328 203l57 -70l-313 -295h-141z" />
<glyph unicode="&#x192;" d="M68 -207l43 144q43 -12 68.5 -15.5t53.5 -3.5q96 0 139.5 59.5t67.5 192.5q8 49 17.5 116.5t17.5 138.5t15.5 136.5t13.5 110.5h-180v141h196q8 92 22.5 193.5t53.5 185.5t111.5 139t195.5 55q49 0 104.5 -7t108.5 -25l-39 -144q-47 10 -73.5 13.5t-61.5 3.5 q-66 0 -102.5 -25.5t-58 -78t-34 -130.5t-24.5 -180h209v-141h-221q-18 -113 -29.5 -224.5t-25 -213t-36 -188.5t-64.5 -151.5t-108.5 -101.5t-168.5 -37q-47 0 -102.5 7t-108.5 30z" />
<glyph unicode="&#x2c6;" horiz-adv-x="1077" d="M156 1155l311 299h141l314 -297l-60 -70l-325 205l-324 -205z" />
<glyph unicode="&#x2c7;" horiz-adv-x="1077" d="M156 1415l57 68l324 -205l327 203l58 -70l-314 -295h-141z" />
<glyph unicode="&#x2d8;" horiz-adv-x="1114" d="M195 1372l106 80q59 -84 126 -129t124 -45q18 0 46 3t64.5 18.5t84 47t106.5 91.5l66 -64q-92 -139 -189.5 -192.5t-183.5 -53.5q-55 0 -105.5 20.5t-93.5 54.5t-80.5 78t-70.5 91z" />
<glyph unicode="&#x2d9;" horiz-adv-x="1079" d="M410 1284q0 59 39.5 100t99.5 41q57 0 99 -41t42 -100t-42 -99t-99 -40q-59 0 -99 40t-40 99z" />
<glyph unicode="&#x2da;" horiz-adv-x="1079" d="M309 1354q0 45 18.5 86t50.5 72.5t76 50t93 18.5t91 -18.5t72.5 -49t48 -72.5t17.5 -87q0 -49 -18.5 -90t-49 -72t-72.5 -48.5t-89 -17.5q-49 0 -93 18.5t-76 49.5t-50.5 72t-18.5 88zM426 1348q0 -45 34 -80t87 -35q47 0 79.5 35t32.5 80q0 47 -31.5 83.5t-80.5 36.5 q-51 0 -86 -35.5t-35 -84.5z" />
<glyph unicode="&#x2db;" horiz-adv-x="1118" d="M608 -289q0 31 9.5 72t35 87t71.5 95t118 96l41 -32q-27 -29 -49.5 -64t-39 -69.5t-25.5 -68.5t-9 -60q0 -59 31.5 -81t85.5 -22q41 0 81.5 8.5t69.5 16.5l16 -76q-53 -29 -112.5 -43t-118.5 -14q-100 0 -152.5 41.5t-52.5 113.5z" />
<glyph unicode="&#x2dc;" horiz-adv-x="1077" d="M197 1217q29 82 79 124.5t113 42.5q39 0 82 -12t85 -26.5t82 -26.5t71 -12l114 82l68 -54q-27 -78 -75 -125t-114 -47q-49 0 -94 12.5t-85 28t-75.5 27.5t-66.5 12l-117 -80z" />
<glyph unicode="&#x2dd;" horiz-adv-x="1079" d="M262 1159l252 359l143 -117l-307 -309zM551 1159l250 359l143 -117l-305 -309z" />
<glyph unicode="&#x398;" horiz-adv-x="1443" d="M102 694q0 147 34 280.5t110 234t194.5 159.5t288.5 59q172 0 290 -59t189.5 -158.5t102 -231.5t30.5 -278q0 -154 -38.5 -284.5t-115.5 -228t-191.5 -151.5t-266.5 -54q-166 0 -284.5 51t-194.5 144t-112 224t-36 293zM338 692q0 -264 91 -404.5t300 -140.5q98 0 169 42 t117 116t67.5 174.5t21.5 214.5q0 100 -14.5 202.5t-55.5 183.5t-114.5 132.5t-190.5 51.5t-192.5 -48.5t-119.5 -128t-61.5 -183t-17.5 -212.5zM451 653v150l536 8v-164z" />
<glyph unicode="&#x3a8;" horiz-adv-x="1740" d="M53 1251v154h357v-518q0 -172 91 -255t263 -93v712h-115v154h451v-154h-117v-712q176 10 265 94t91 260v512h351v-154h-129v-364q-2 -229 -146.5 -364.5t-431.5 -143.5v-225h150v-154h-515v154h146v223q-293 14 -435.5 146t-142.5 384v344h-133z" />
<glyph unicode="&#x3b8;" horiz-adv-x="1095" d="M72 715q0 143 20.5 279t73.5 241.5t146.5 169t238.5 63.5t236.5 -64.5t142.5 -169t69.5 -238.5t18.5 -271q0 -145 -21.5 -278.5t-76 -235.5t-147.5 -163.5t-234 -61.5q-145 0 -236.5 57t-142.5 156.5t-69.5 232.5t-18.5 283zM293 678q0 -127 6 -226.5t32.5 -168 t78 -105.5t137.5 -37q80 0 129 45t76.5 121t36 172t8.5 199h-504zM293 827h502q-2 90 -11.5 176.5t-36 154t-73.5 108.5t-123 41q-80 0 -130 -40t-78 -105.5t-38 -153t-12 -181.5z" />
<glyph unicode="&#x3c8;" horiz-adv-x="1536" d="M31 844v155h334v-602q0 -41 17 -82t54 -76.5t93.5 -59t132.5 -25.5v872h-113v162h325v-1034q82 2 139.5 25.5t92.5 60t50 86t15 104.5v569h334v-155h-119v-447q0 -86 -35.5 -159.5t-101 -128t-161 -86t-214.5 -33.5v-264h158v-156h-518v156h148v264q-121 2 -216.5 33.5 t-161 86t-100 128t-34.5 159.5v447h-119z" />
<glyph unicode="&#x400;" horiz-adv-x="1243" d="M299 1835l129 129l274 -338l-80 -75zM86 0v160h139v1085h-135v158h1063v-367h-166v209h-536v-440l497 10v-162l-497 9v-502h563v215h168v-375h-1096z" />
<glyph unicode="&#x401;" horiz-adv-x="1243" d="M86 0v160h139v1085h-135v158h1063v-367h-166v209h-536v-440l497 10v-162l-497 9v-502h563v215h168v-375h-1096zM356 1599q0 45 32 76t73 31q47 0 79.5 -29.5t32.5 -77.5q0 -47 -31.5 -75.5t-76.5 -28.5q-47 0 -78 28.5t-31 75.5zM750 1599q0 45 29.5 76t70.5 31 q49 0 82 -29.5t33 -77.5q0 -47 -33 -75.5t-82 -28.5q-43 0 -71.5 28.5t-28.5 75.5z" />
<glyph unicode="&#x402;" horiz-adv-x="1628" d="M49 1069v334h1274v-334h-166v182h-428v-460q98 39 194.5 56t176.5 17q211 0 327.5 -114.5t116.5 -313.5q0 -119 -35.5 -220t-94 -185t-131.5 -149.5t-148 -110.5l-91 116q117 92 192 218t75 292q0 160 -75 229.5t-204 69.5q-66 0 -145.5 -15t-157.5 -46v-481h156v-154 h-527v154h148v1097h-291v-182h-166z" />
<glyph unicode="&#x403;" horiz-adv-x="1183" d="M86 0v154h139v1097h-135v152h1059v-354h-166v202h-532v-1097h194v-154h-559zM539 1579l274 336l131 -129l-323 -285z" />
<glyph unicode="&#x404;" horiz-adv-x="1220" d="M102 694q0 78 11.5 163t39 167t74.5 154.5t119 128t170 88t229 32.5q113 0 205 -16t164 -39v-342h-168v199q-39 10 -91 17t-105 7q-98 0 -173 -32.5t-127.5 -93t-80 -142.5t-29.5 -180q129 2 256 3t256 5v-160q-129 2 -257 3t-257 1q-2 -109 18.5 -198.5t70.5 -155 t135 -102.5t212 -37q27 0 68 3t87 9t94 14.5t89 18.5l37 -160q-39 -16 -90 -27.5t-107.5 -19.5t-114 -12t-108.5 -4q-178 0 -298 53t-193.5 147.5t-104.5 224t-31 283.5z" />
<glyph unicode="&#x405;" d="M76 383h164l2 -168q76 -35 153.5 -48t145.5 -13q80 0 139 20.5t98 52t58.5 73.5t19.5 85q0 63 -23.5 102t-65.5 63.5t-98.5 42t-123.5 36.5q-94 20 -176 51t-143.5 75t-97.5 107.5t-36 151.5q2 100 41 177t105.5 128t155.5 77.5t194 26.5q45 0 98 -4t107.5 -13 t107.5 -26.5t98 -42.5l2 -293h-165l-2 170q-47 20 -118 28.5t-126 8.5q-53 0 -101.5 -13t-84 -40t-57 -66.5t-21.5 -91.5q0 -49 25.5 -84.5t68.5 -62.5t99 -46.5t118 -33.5q86 -20 169 -48t148.5 -74t105.5 -116.5t40 -179.5t-40 -186.5t-111.5 -128.5t-172 -74.5 t-221.5 -23.5q-119 0 -244 22.5t-233 79.5q0 74 -1 148.5t-1 150.5z" />
<glyph unicode="&#x406;" horiz-adv-x="780" d="M143 0v158h133v1087h-133v160h494v-160h-135v-1087h135v-158h-494z" />
<glyph unicode="&#x407;" horiz-adv-x="780" d="M88 1599q0 45 32 76t73 31q47 0 79.5 -29.5t32.5 -77.5q0 -47 -31.5 -75.5t-76.5 -28.5q-47 0 -78 28.5t-31 75.5zM143 0v158h133v1087h-133v160h494v-160h-135v-1087h135v-158h-494zM481 1599q0 45 30 76t71 31q49 0 81.5 -29.5t32.5 -77.5q0 -47 -32.5 -75.5 t-81.5 -28.5q-43 0 -72 28.5t-29 75.5z" />
<glyph unicode="&#x408;" horiz-adv-x="804" d="M-49 -219q111 59 181.5 113.5t110.5 115t54 131t14 162.5v942h-178v160h563v-160h-157l-2 -948q0 -137 -34 -243.5t-100.5 -186.5t-165 -137.5t-227.5 -94.5z" />
<glyph unicode="&#x409;" horiz-adv-x="2037" d="M27 115q115 41 183.5 115.5t105 191.5t48 277.5t11.5 371.5v178h-180v156h1118v-154h-148v-413h312q111 0 199.5 -31t151 -86t95.5 -133t33 -172q0 -106 -34 -184t-92 -129.5t-140 -77t-177 -25.5h-708v154h135v1097l-356 -2v-135q0 -225 -14.5 -422.5t-66.5 -350.5 t-152.5 -253t-272.5 -133zM1165 154h303q106 0 180 66.5t74 197.5q0 70 -22.5 120t-61.5 82.5t-88 48t-100 15.5h-285v-530z" />
<glyph unicode="&#x40a;" horiz-adv-x="2088" d="M88 0v154h137v1097h-137v152h490v-152h-127v-424h540v424h-135v154h508v-154h-147v-420h311q113 0 202 -29.5t150.5 -84.5t94 -132t32.5 -171q0 -104 -32.5 -181t-92 -129.5t-140.5 -78t-177 -25.5h-707v154h133v526h-540v-526h127v-154h-490zM1217 154h303 q109 0 181.5 64.5t72.5 197.5q0 70 -22.5 119t-61.5 81.5t-88.5 48t-100.5 15.5h-284v-526z" />
<glyph unicode="&#x40b;" horiz-adv-x="1744" d="M55 1069v334h1270v-334h-166v182h-422v-456q94 35 190.5 52t182.5 17q88 0 165 -19.5t133 -59.5t89 -103.5t33 -151.5v-376h133v-154h-487v154h129v335q0 59 -18.5 100.5t-52.5 66t-81 34.5t-104 10q-82 0 -166 -19t-146 -48v-479h144v-154h-516v154h149v1097h-295v-182 h-164z" />
<glyph unicode="&#x40c;" horiz-adv-x="1370" d="M86 0v154h133v1097h-133v152h492v-152h-134v-1097h134v-154h-492zM512 694v68l408 559q39 57 77.5 78.5t89.5 19.5q98 0 193 -45l-14 -129l-179 -16l-368 -486l426 -577l188 -19v-129q-45 -16 -100 -25t-90 -9q-63 -4 -106.5 15t-78.5 69zM618 1583l275 336l131 -129 l-324 -285z" />
<glyph unicode="&#x40d;" horiz-adv-x="1548" d="M455 1835l129 129l274 -338l-80 -75zM80 0v154h145v1095h-141v152h504v-152h-142v-815h5q166 190 329.5 378.5t329.5 379.5v57h-162v152h522v-152h-143v-1095h143v-154h-503v154h141v823h-4q-166 -193 -329 -382t-329 -380v-61h138v-154h-504z" />
<glyph unicode="&#x40e;" horiz-adv-x="1273" d="M18 1249v156h457v-156h-127l172 -428l125 -329h10l119 331l160 426h-131v156h448v-156h-104l-414 -1052q-47 -117 -110.5 -166t-165.5 -49q-37 0 -97.5 5t-158.5 33l35 148q53 -10 94 -16.5t73 -6.5q47 0 80 26t60 91l35 90h-70l-383 897h-107zM285 1745l106 78 q59 -80 126 -127t126 -47q18 0 45 4t63.5 19.5t84 48t106.5 89.5l66 -63q-92 -137 -189.5 -191.5t-183.5 -54.5q-57 0 -106.5 20.5t-92.5 54.5t-80.5 78t-70.5 91z" />
<glyph unicode="&#x40f;" horiz-adv-x="1513" d="M84 0v154h137v1095h-137v154h491v-154h-129v-1095h617v1095h-127v154h491v-154h-137v-1095h137v-154h-581v-369h-176v369h-586z" />
<glyph unicode="&#x410;" horiz-adv-x="1427" d="M41 0v156h115l424 1249h280q100 -305 207 -624.5t207 -624.5h115v-156h-480v156h135q-16 53 -36.5 117.5t-36.5 113.5h-527q-14 -43 -34.5 -108.5t-36.5 -122.5h139v-156h-471zM498 543h426q-41 139 -84 275t-88 276q-8 31 -17.5 61.5t-19.5 61.5h-4l-39 -125 q-18 -55 -41 -126t-47.5 -146t-47 -147.5t-38.5 -129.5z" />
<glyph unicode="&#x411;" horiz-adv-x="1316" d="M86 0v154h135v1097h-135v152h1012v-320h-164v168h-488v-413h314q231 0 353 -110t122 -296q0 -106 -33 -187t-91 -135.5t-139 -82t-177 -27.5h-709zM446 154h308q106 0 179 71.5t73 200.5q0 70 -21.5 119t-58.5 79.5t-87.5 45t-105.5 14.5h-287v-530z" />
<glyph unicode="&#x412;" horiz-adv-x="1327" d="M82 0v156h143v1089h-135v158h643q236 0 350.5 -95.5t114.5 -269.5q0 -31 -6 -70.5t-26.5 -81.5t-57.5 -82t-98 -69v-2q68 -20 111.5 -58t70.5 -85t38 -99.5t11 -101.5q0 -90 -32.5 -161.5t-90 -122t-133.5 -78t-164 -27.5h-739zM453 156h297q70 0 119 19.5t80.5 53 t46 78.5t14.5 94t-16.5 93.5t-48.5 78t-81 54t-114 20.5h-297v-491zM453 803h266q123 0 187.5 60.5t64.5 158.5t-59.5 160.5t-192.5 62.5h-266v-442z" />
<glyph unicode="&#x413;" horiz-adv-x="1183" d="M86 0v154h139v1097h-135v152h1059v-354h-166v202h-532v-1097h194v-154h-559z" />
<glyph unicode="&#x414;" horiz-adv-x="1513" d="M51 147l113 7q78 82 127 189.5t77.5 234.5t40 272t11.5 305v96h-148v152h1129v-152h-135v-1097l141 -7v-497h-172v350h-1012v-350h-172v497zM397 154h643v1097h-424v-108q0 -176 -9 -316.5t-33.5 -258t-67.5 -219t-109 -195.5z" />
<glyph unicode="&#x415;" horiz-adv-x="1243" d="M86 0v160h139v1085h-135v158h1063v-367h-166v209h-536v-440l497 10v-162l-497 9v-502h563v215h168v-375h-1096z" />
<glyph unicode="&#x416;" horiz-adv-x="1992" d="M37 18v129l192 19l389 573l-368 488l-182 16l-15 129q90 47 193 47q43 0 74.5 -15t66.5 -61l438 -585v-66l-432 -631q-35 -53 -77 -65t-89 -12t-98 9t-92 25zM756 0v154h131v1095h-131v154h485v-154h-133v-1095h133v-154h-485zM1167 692v66l424 579q35 49 73 65.5 t83 16.5q102 0 192 -47l-12 -129l-182 -16l-371 -488l389 -573l195 -19v-129q-47 -16 -101.5 -25t-91.5 -9q-53 0 -96 12t-74 57z" />
<glyph unicode="&#x417;" horiz-adv-x="1204" d="M66 72l49 151q106 -29 195 -45t149 -16q410 0 409 272q0 59 -23.5 105.5t-66.5 78t-102.5 48t-128.5 16.5h-174v147h164q72 0 127 19.5t92 52.5t56 74t19 84q0 57 -21.5 96t-59 63.5t-91 35t-116.5 10.5q-66 0 -132.5 -12.5t-119.5 -34.5v-211h-170v331q47 23 103.5 39.5 t114.5 27.5t116.5 17t111.5 6q98 0 188.5 -17t159 -58t109.5 -107.5t41 -167.5q0 -41 -14.5 -86t-44 -86t-71.5 -75.5t-97 -55.5v-2q123 -39 193.5 -126t70.5 -212q0 -113 -45 -195.5t-123 -138t-181.5 -83t-217.5 -27.5q-53 0 -114 4t-123 13t-121.5 25.5t-110.5 39.5z" />
<glyph unicode="&#x418;" horiz-adv-x="1548" d="M80 0v154h145v1095h-141v152h504v-152h-142v-815h5q166 190 329.5 378.5t329.5 379.5v57h-162v152h522v-152h-143v-1095h143v-154h-503v154h141v823h-4q-166 -193 -329 -382t-329 -380v-61h138v-154h-504z" />
<glyph unicode="&#x419;" horiz-adv-x="1548" d="M80 0v154h145v1095h-141v152h504v-152h-142v-815h5q166 190 329.5 378.5t329.5 379.5v57h-162v152h522v-152h-143v-1095h143v-154h-503v154h141v823h-4q-166 -193 -329 -382t-329 -380v-61h138v-154h-504zM418 1774l106 79q59 -84 126 -129t124 -45q18 0 46 3.5t65 18.5 t84 47t106 91l66 -63q-92 -139 -189.5 -192.5t-183.5 -53.5q-55 0 -105.5 20.5t-93.5 54t-80.5 78t-70.5 91.5z" />
<glyph unicode="&#x41a;" horiz-adv-x="1370" d="M86 0v154h133v1097h-133v152h492v-152h-134v-1097h134v-154h-492zM512 694v68l408 559q39 57 77.5 78.5t89.5 19.5q98 0 193 -45l-14 -129l-179 -16l-368 -486l426 -577l188 -19v-129q-45 -16 -100 -25t-90 -9q-63 -4 -106.5 15t-78.5 69z" />
<glyph unicode="&#x41b;" horiz-adv-x="1462" d="M27 115q115 41 183.5 115.5t105 191.5t48 277.5t11.5 371.5v178h-180v156h1165v-154h-137v-1095h137v-156h-492v156h127v1093h-411v-135q0 -225 -14.5 -422.5t-66.5 -350.5t-152.5 -253t-272.5 -133z" />
<glyph unicode="&#x41c;" horiz-adv-x="1863" d="M63 0v156h136v1089h-136v158h429q29 -59 62.5 -134t70.5 -161q47 -104 96 -218t96 -222q33 -72 60.5 -138.5t50.5 -119.5h10q25 53 48.5 110.5t45.5 110.5l219 504l117 268h422v-158h-127v-1089h127v-156h-479v156h125v927h-4l-82 -192q-33 -76 -65 -151.5t-66 -151.5 q-47 -102 -91.5 -203.5t-89.5 -206.5h-213q-47 104 -95 207.5t-95 208.5l-137 309l-78 180h-6q0 -233 -1 -463.5t-1 -463.5h133v-156h-482z" />
<glyph unicode="&#x41d;" horiz-adv-x="1513" d="M84 0v158h137v1087h-137v158h491v-158h-129v-436h617v436h-127v158h491v-158h-137v-1087h137v-158h-491v158h127v499h-617v-499h129v-158h-491z" />
<glyph unicode="&#x41e;" horiz-adv-x="1443" d="M102 694q0 147 34 280.5t110 234t194.5 159.5t288.5 59q172 0 290 -59t189.5 -158.5t102 -231.5t30.5 -278q0 -154 -38.5 -284.5t-115.5 -228t-191.5 -151.5t-266.5 -54q-166 0 -284.5 51t-194.5 144t-112 224t-36 293zM338 692q0 -264 91 -402t300 -138q98 0 169 42 t117 114.5t67.5 172t21.5 213.5q0 100 -14.5 201.5t-55.5 181.5t-114.5 130t-190.5 50t-192.5 -47t-119.5 -125.5t-61.5 -181t-17.5 -211.5z" />
<glyph unicode="&#x41f;" horiz-adv-x="1513" d="M86 0v156h135v1091h-135v158h1344v-158h-138v-1091h138v-156h-494v156h127v1091h-614v-1091h129v-156h-492z" />
<glyph unicode="&#x420;" horiz-adv-x="1224" d="M86 0v158h133v1087h-133v160h625q213 0 333.5 -107.5t120.5 -308.5q0 -70 -22.5 -144.5t-72.5 -137t-133 -103.5t-204 -41h-289v-405h179v-158h-537zM444 719h238q49 0 94 13t80 44t55.5 81t20.5 124q0 137 -67.5 200.5t-188.5 63.5h-232v-526z" />
<glyph unicode="&#x421;" horiz-adv-x="1214" d="M102 696q0 117 28 247t99.5 237.5t196.5 178.5t319 71q115 0 205 -16.5t160 -41.5v-356h-164v215q-47 12 -98 17t-96 5q-111 0 -189 -39.5t-128 -112.5t-73.5 -175.5t-23.5 -227.5q0 -123 20.5 -221t70.5 -167.5t135 -106.5t214 -37q27 0 67 2t85 8t92 14.5t88 20.5 l37 -160q-41 -16 -91 -28.5t-105.5 -21.5t-112 -14t-107.5 -5q-178 0 -299 54t-193.5 149.5t-104.5 226t-32 284.5z" />
<glyph unicode="&#x422;" horiz-adv-x="1202" d="M31 1022v383h1143v-383h-166v223h-293v-1087h168v-158h-559v158h168v1087h-297v-223h-164z" />
<glyph unicode="&#x423;" horiz-adv-x="1273" d="M18 1249v156h457v-156h-127l172 -428l125 -329h10l119 331l160 426h-131v156h448v-156h-104l-414 -1052q-47 -117 -110.5 -166t-165.5 -49q-37 0 -97.5 5t-158.5 33l35 148q53 -10 94 -16.5t73 -6.5q47 0 80 26t60 91l35 90h-70l-383 897h-107z" />
<glyph unicode="&#x424;" horiz-adv-x="1701" d="M82 707q0 109 49 196.5t137 152t211 101.5t269 45v51h-125v150h471v-150h-125v-53q141 -6 261 -43t207 -99.5t135 -149.5t48 -195q0 -119 -49 -208t-137 -149.5t-207 -94.5t-258 -42v-69h125v-150h-471v150h125v69q-152 6 -275 38t-210 90.5t-134 147.5t-47 212zM293 702 q0 -88 38 -147t101.5 -96t145 -55.5t170.5 -26.5v659q-94 -6 -177.5 -28.5t-144.5 -64.5t-97 -101.5t-36 -139.5zM969 377q84 6 162.5 27.5t139 61.5t97.5 98.5t37 142.5q0 147 -109.5 232t-326.5 97v-659z" />
<glyph unicode="&#x425;" horiz-adv-x="1366" d="M37 0v160h125l375 569l-322 514h-147l2 162h520v-162h-119l240 -389l247 389h-122v162h467v-162h-129l-353 -522l363 -561h135l2 -160h-530v160h129l-269 430l-274 -430h135v-160h-475z" />
<glyph unicode="&#x426;" horiz-adv-x="1513" d="M82 0v154h137v1095h-137v154h491v-154h-129v-1095h617v1095h-127v154h491v-154h-137v-1095h162v-502h-172v348h-1196z" />
<glyph unicode="&#x427;" horiz-adv-x="1427" d="M53 1247v154h488v-154h-129v-313q0 -123 69.5 -171t186.5 -50q80 0 160.5 17.5t150.5 43.5v473h-127v154h485v-154h-137v-1093h137v-154h-493v154h135v452q-92 -29 -181 -44t-175 -15q-90 0 -170 19.5t-139.5 59.5t-93.5 104.5t-34 156.5v360h-133z" />
<glyph unicode="&#x428;" horiz-adv-x="2064" d="M86 0v154h135v1095h-135v154h483v-154h-127v-1095h480v1095h-121v154h467v-154h-123v-1095h475v1095h-123v154h481v-154h-135v-1095h135v-154h-1892z" />
<glyph unicode="&#x429;" horiz-adv-x="2064" d="M86 0v154h135v1095h-135v154h483v-154h-127v-1095h480v1095h-121v154h467v-154h-123v-1095h475v1095h-123v154h481v-154h-135v-1095h158v-504h-172v350h-1743z" />
<glyph unicode="&#x42a;" horiz-adv-x="1634" d="M35 1053v350h862v-152h-133l-2 -413h311q113 0 202 -31t150.5 -86t94 -133t32.5 -172q0 -106 -33.5 -184t-92 -129.5t-140.5 -77t-176 -25.5h-717v154h144v1097h-338v-198h-164zM762 154h303q106 0 180 66.5t74 197.5q0 70 -22.5 120t-61.5 82.5t-88 48t-100 15.5h-285 v-530z" />
<glyph unicode="&#x42b;" horiz-adv-x="1925" d="M86 0v154h143v1097h-143v154h514v-154h-145v-413h311q113 0 202 -31t150.5 -86t94 -133t32.5 -172q0 -106 -33.5 -184t-92 -129.5t-140.5 -77t-176 -25.5h-717zM455 154h303q106 0 180 66.5t74 197.5q0 70 -23.5 120t-61.5 82.5t-88.5 48t-101.5 15.5h-282v-530zM1337 0 v154h133v1097h-133v152h496v-152h-137v-1097h137v-154h-496z" />
<glyph unicode="&#x42c;" horiz-adv-x="1337" d="M96 0v154h144v1097h-144v154h514v-154h-145v-413h311q113 0 202 -31t150.5 -86t94 -133t32.5 -172q0 -106 -33.5 -184t-92 -129.5t-140.5 -77t-176 -25.5h-717zM465 154h303q106 0 180 66.5t74 197.5q0 70 -23.5 120t-61.5 82.5t-88 48t-101 15.5h-283v-530z" />
<glyph unicode="&#x42d;" horiz-adv-x="1214" d="M59 49l39 160q41 -10 87 -19.5t90 -15.5t83 -9t68 -3q121 0 209 38t144.5 104.5t83 157.5t24.5 197l-510 -8v162l510 -10q-2 102 -25.5 185t-70 142.5t-119 91t-172.5 31.5q-53 0 -118 -9t-103 -19v-199h-166v342q72 25 172 42t215 17q193 0 314.5 -60t190 -158.5 t93 -224.5t24.5 -257q0 -147 -35.5 -282.5t-114.5 -237t-204 -161.5t-305 -60q-102 0 -214 15t-190 48z" />
<glyph unicode="&#x42e;" horiz-adv-x="2019" d="M84 0v156h137v1095h-137v152h491v-152h-129v-442h279q12 129 50 241.5t109.5 196.5t180.5 132t262 48q172 0 285.5 -59t181.5 -159.5t95.5 -232.5t27.5 -278q0 -154 -35 -284.5t-107.5 -226t-184 -149.5t-263.5 -54q-158 0 -270.5 47t-185 134t-109.5 212t-39 280h-277 v-501h129v-156h-491zM950 690q0 -133 19.5 -234.5t63.5 -170t117 -104.5t177 -36q98 0 167 42t112 116t62.5 174.5t19.5 216.5q0 100 -12.5 201.5t-50.5 182.5t-109.5 132.5t-188.5 51.5t-190.5 -48.5t-114.5 -128t-56.5 -182t-15.5 -213.5z" />
<glyph unicode="&#x42f;" horiz-adv-x="1363" d="M27 10v125l155 21l242 477q-80 18 -132 57t-83 88t-42 103.5t-11 103.5q0 94 30.5 172t88 133.5t140.5 85t187 29.5h643v-154h-133v-1097h139v-154h-506v154h144v444h-262l-242 -492q-29 -61 -61.5 -92.5t-108.5 -31.5q-33 0 -89 7t-99 21zM387 989q0 -76 25.5 -123 t65.5 -73.5t87 -35.5t90 -9h234v503h-248q-106 0 -180 -65.5t-74 -196.5z" />
<glyph unicode="&#x430;" horiz-adv-x="1099" d="M68 270q0 61 21.5 112.5t68.5 90.5t120.5 64.5t178.5 31.5l241 17v59q0 113 -43 160t-157 47q-74 0 -155 -14.5t-153 -38.5l-20 69l-20 70q86 39 193.5 59.5t205.5 20.5q168 0 262 -75t94 -263v-526h156l12 -123q-20 -12 -51 -20.5t-63.5 -13.5t-63.5 -7t-51 -2 q-59 0 -97 22.5t-40 102.5q-2 0 -2 1t-3 1q-55 -49 -106 -76t-95 -40t-79 -15t-57 -2q-90 0 -147.5 28.5t-91.5 71.5t-46 94t-12 94zM295 293q0 -80 39 -118t127 -38q55 0 119.5 29t113.5 76v225l-223 -16q-86 -6 -131 -50.5t-45 -107.5z" />
<glyph unicode="&#x431;" horiz-adv-x="1099" d="M82 461v194q4 119 10 180.5t17 98.5q37 160 145 272.5t285 182.5q33 14 79 32.5t95 38t94 38t76 32.5l63 -131q-72 -41 -135 -66.5t-100 -42.5q-100 -39 -177 -77.5t-132.5 -92t-89 -126t-46.5 -179.5q4 0 6 -2q51 80 138.5 127t195.5 47q113 0 190.5 -38t127 -104.5 t71 -157.5t21.5 -198q0 -92 -23.5 -183t-80 -162.5t-148.5 -115.5t-227 -44q-129 0 -215 42t-138.5 110.5t-76 153.5t-25.5 171zM303 471q0 -59 9.5 -117.5t35 -105.5t74.5 -77t129 -30q74 0 120 30t72.5 78t37 109.5t10.5 124.5q0 66 -9.5 129.5t-34 112.5t-68.5 79 t-116 30t-121 -35t-79.5 -88.5t-45 -117t-14.5 -122.5z" />
<glyph unicode="&#x432;" horiz-adv-x="1067" d="M66 0v150h106v706h-104v145h571q170 0 253 -71.5t83 -190.5q0 -51 -24.5 -109.5t-94.5 -99.5q45 -18 73.5 -47.5t46 -62.5t24 -69t6.5 -66q0 -66 -26 -118t-71 -89t-105.5 -57.5t-127.5 -20.5h-610zM385 145h221q51 0 86 13.5t57.5 36t33 51t10.5 59.5q0 59 -45.5 99 t-141.5 40h-221v-299zM385 588h209q80 0 124 37t44 96t-41 99t-139 40h-197v-272z" />
<glyph unicode="&#x433;" horiz-adv-x="950" d="M70 0v147h108v709h-102v145h837v-315h-151v170h-369v-709h152v-147h-475z" />
<glyph unicode="&#x434;" horiz-adv-x="1222" d="M41 145l102 5q57 51 91 126.5t50.5 162.5t20.5 178.5t4 177.5v61h-125v145h850v-851l101 -5v-434h-166v289h-758v-289h-170v434zM381 150h436v706h-307v-72q0 -74 -3 -159.5t-15.5 -171.5t-38 -165t-72.5 -138z" />
<glyph unicode="&#x435;" horiz-adv-x="1034" d="M82 498q0 74 18.5 165t69.5 171.5t141 135t232 54.5q145 0 228 -54.5t125 -131t52 -158.5t10 -137v-99h-655q0 -68 12.5 -123t43 -94t83 -60.5t129.5 -21.5q86 0 158 16.5t154 51.5l55 -137q-94 -49 -193.5 -71.5t-199.5 -22.5q-141 0 -230.5 43t-141.5 114.5t-71.5 165 t-19.5 193.5zM307 596h447q-2 55 -12.5 103.5t-35 85t-64.5 58t-101 21.5q-59 0 -102.5 -23.5t-71 -61.5t-43 -86t-17.5 -97z" />
<glyph unicode="&#x436;" horiz-adv-x="1656" d="M53 16v111l140 18l276 387l-252 326l-123 8l-10 115q29 16 72 27.5t84 11.5q47 0 79.5 -15.5t63.5 -60.5l295 -401v-45l-311 -449q-29 -41 -63 -54t-85 -13q-35 2 -84 10t-82 24zM600 852v147h457v-147h-123v-707h125v-145h-457v145h115v707h-117zM971 498v45l307 401 q31 45 63.5 60.5t79.5 15.5q41 0 84 -11.5t72 -27.5l-10 -115l-123 -8l-264 -326l288 -387l140 -18v-111q-33 -16 -82 -24t-84 -10q-51 0 -85 13t-63 54z" />
<glyph unicode="&#x437;" horiz-adv-x="954" d="M45 53l43 135q80 -27 148.5 -40t138.5 -13q129 0 200.5 42t71.5 140q0 45 -19.5 75t-49 47.5t-65.5 23.5t-69 6h-145v131h121q33 0 68.5 6t65.5 21.5t48.5 43t18.5 70.5q0 59 -44.5 96t-140.5 37q-47 0 -97 -6t-101 -22v-150h-152v256q76 35 178.5 54.5t198.5 19.5 q182 0 280.5 -69.5t98.5 -188.5q0 -82 -47 -138.5t-115 -80.5v-6q84 -23 135 -87.5t51 -150.5q0 -80 -33.5 -139.5t-93 -100t-141.5 -61t-180 -20.5q-111 0 -212.5 21t-160.5 48z" />
<glyph unicode="&#x438;" horiz-adv-x="1267" d="M45 854v145h356v-680h9q-6 -10 2 2.5t25.5 39t43 65.5t56.5 84q45 63 95 137t96 142.5t84 125t56 84.5h209q0 -211 1 -420.5t1 -422.5h142v-129q-47 -20 -99.5 -29.5t-93.5 -9.5q-49 0 -81 16t-51 42t-27.5 55.5t-8.5 56.5v522h-8q-6 -10 -41 -64.5t-84 -126.5 q-43 -66 -94 -139.5t-97.5 -142t-85 -124.5t-57.5 -83h-207v854h-141z" />
<glyph unicode="&#x439;" horiz-adv-x="1267" d="M45 854v145h356v-680h9q-6 -10 2 2.5t25.5 39t43 65.5t56.5 84q45 63 95 137t96 142.5t84 125t56 84.5h209q0 -211 1 -420.5t1 -422.5h142v-129q-47 -20 -99.5 -29.5t-93.5 -9.5q-49 0 -81 16t-51 42t-27.5 55.5t-8.5 56.5v522h-8q-6 -10 -41 -64.5t-84 -126.5 q-43 -66 -94 -139.5t-97.5 -142t-85 -124.5t-57.5 -83h-207v854h-141zM264 1364l107 80q59 -84 125.5 -129t124.5 -45q18 0 45.5 3t64.5 18.5t84 47t107 91.5l65 -64q-92 -139 -189.5 -192.5t-183.5 -53.5q-55 0 -105 20.5t-93 54.5t-81 78t-71 91z" />
<glyph unicode="&#x43a;" horiz-adv-x="1132" d="M43 856v145h369v-854h125v-147h-476v147h132v709h-150zM446 498v45l314 401q31 45 63.5 60.5t79.5 15.5q41 0 84 -11.5t72 -27.5l-10 -115l-123 -8l-271 -326l295 -387l140 -18v-111q-33 -16 -82.5 -24t-83.5 -10q-51 0 -85 13t-63 54z" />
<glyph unicode="&#x43b;" horiz-adv-x="1181" d="M35 119q82 41 129 92t70.5 125t29.5 175t6 241v104h-153v145h878v-854h125v-147h-463v147h121v709h-305v-72q0 -156 -12 -294t-51 -246.5t-114 -182t-200 -100.5z" />
<glyph unicode="&#x43c;" horiz-adv-x="1554" d="M49 854v145h383q10 -18 32.5 -59t53.5 -95t64.5 -115.5t66.5 -121.5l125 -235h6q10 18 43 84.5t76 148.5l207 393h364v-145h-133v-698h146v-129q-45 -20 -97.5 -29.5t-93.5 -9.5q-59 0 -91 18.5t-47 48t-18 67.5t-6 79v438h-8q-25 -47 -48 -95t-48 -91q-45 -82 -90 -163 t-90 -179h-137q-6 12 -24.5 45.5t-44.5 80t-56.5 99.5t-59.5 104q-41 72 -72.5 130.5t-41.5 80.5h-9v-651h-208v854h-144z" />
<glyph unicode="&#x43d;" horiz-adv-x="1214" d="M35 856v145h350v-407h442v407h217v-843h142v-131q-45 -20 -98.5 -30.5t-94.5 -10.5q-88 0 -127 35.5t-39 125.5v310h-444v-457h-217v856h-131z" />
<glyph unicode="&#x43e;" horiz-adv-x="1101" d="M82 496q0 102 26.5 197t84 168t147.5 117t217 44q129 0 218 -44t143.5 -115.5t78 -167t23.5 -195.5t-24.5 -193.5t-81 -165t-147.5 -114.5t-226 -43q-127 0 -214 41t-141.5 111.5t-79 163t-24.5 196.5zM307 496q0 -70 9.5 -133.5t36 -111.5t74.5 -77t128 -29q74 0 121 31 t73.5 80t37 111.5t10.5 128.5q0 63 -9.5 127.5t-35 117t-71.5 85t-120 32.5q-76 0 -125 -31.5t-77.5 -83t-40 -115.5t-11.5 -132z" />
<glyph unicode="&#x43f;" horiz-adv-x="1253" d="M43 844v153h1159v-153h-149v-688h147v-129q-43 -20 -100.5 -30.5t-98.5 -10.5q-55 0 -87.5 14t-50 37.5t-22.5 54.5t-5 66v686h-433v-844h-215v844h-145z" />
<glyph unicode="&#x440;" horiz-adv-x="1163" d="M33 -274h149v1118h-149v155h354v-92l4 -2q61 51 147.5 81t159.5 30q113 0 188 -40t121 -107.5t65.5 -159t19.5 -191.5q0 -117 -22.5 -215t-72 -170t-129.5 -112.5t-194 -40.5q-53 0 -128 14t-147 51v-319h160v-156h-526v156zM399 219q18 -12 45 -24.5t59 -21.5t65.5 -15 t64.5 -6q45 0 88 15t75.5 55t52 112t19.5 182q0 98 -17 160.5t-47 99.5t-72 50.5t-91 13.5q-33 0 -67.5 -8.5t-67.5 -21.5t-60.5 -29.5t-46.5 -32.5v-529z" />
<glyph unicode="&#x441;" horiz-adv-x="964" d="M82 489q0 82 18.5 176.5t70.5 174.5t145.5 132t240.5 52q84 0 162 -13.5t143 -39.5v-281h-155v146q-18 4 -44 7t-45 3q-168 0 -242.5 -83t-74.5 -269q0 -176 68.5 -260t201.5 -84q76 0 145.5 14t141.5 43l47 -144q-70 -39 -165 -59t-195 -20q-135 0 -224.5 38.5 t-142.5 107.5t-74.5 161t-21.5 198z" />
<glyph unicode="&#x442;" horiz-adv-x="1019" d="M41 713v288h938v-288h-154v143h-207v-709h138v-147h-486v147h131v709h-208v-143h-152z" />
<glyph unicode="&#x443;" horiz-adv-x="1148" d="M31 842v159h268l166 -542l96 -320h10l101 312l133 399h-125v151h428v-151h-100l-359 -1022q-18 -53 -41.5 -101.5t-58.5 -85t-87 -58t-128 -21.5q-29 0 -82 5t-141 32l28 145q47 -10 87 -15t75 -5q72 0 112 49t66 131l35 108h-104l-273 830h-106z" />
<glyph unicode="&#x444;" horiz-adv-x="1447" d="M82 498q0 111 36 205t103.5 162.5t167.5 109.5t229 45v295h-151v145h360v-440q131 -2 232.5 -39t169 -103.5t102.5 -158.5t35 -205q0 -109 -34 -204t-100.5 -166.5t-167.5 -113.5t-237 -44v-269h166v-147h-524v147h149v269q-147 6 -249.5 49t-166 112.5t-92 160 t-28.5 190.5zM293 500q0 -162 75.5 -261.5t249.5 -103.5v729q-86 -4 -148 -33.5t-101 -77.5t-57.5 -113.5t-18.5 -139.5zM827 135q160 6 244 107.5t84 261.5q0 74 -16.5 139.5t-55.5 113.5t-101 76.5t-155 30.5v-729z" />
<glyph unicode="&#x445;" horiz-adv-x="1122" d="M25 0l2 154h92l297 393l-197 299h-168v153h301l219 -331l131 178h-100v153h445v-153h-119l-256 -330l241 -362h146v-154h-463v154h80l-156 235l-178 -235h115v-154h-432z" />
<glyph unicode="&#x446;" horiz-adv-x="1253" d="M68 852v149h338v-851h438v702h-99v149h424v-149h-106v-702h123v-437h-170v287h-946v150h120v702h-122z" />
<glyph unicode="&#x447;" horiz-adv-x="1212" d="M29 854v147h362v-274q0 -102 32 -152.5t130 -50.5q63 0 127.5 14.5t122.5 43.5v422h219v-854h137v-64q0 -43 2 -66q-53 -23 -107.5 -30.5t-88.5 -7.5q-86 0 -124 49t-38 121v276q-72 -39 -158 -55.5t-160 -16.5q-96 0 -156.5 27t-95 71t-47 102t-12.5 124v174h-145z" />
<glyph unicode="&#x448;" horiz-adv-x="1697" d="M63 852v147h340v-849h330v702h-92v147h403v-147h-94v-702h338v702h-90v147h418v-147h-109v-702h121v-150h-1562v150h120v702h-123z" />
<glyph unicode="&#x449;" horiz-adv-x="1701" d="M63 852v147h340v-849h330v702h-92v147h403v-147h-94v-702h338v702h-90v147h418v-147h-109v-702h123v-437h-170v287h-1394v150h120v702h-123z" />
<glyph unicode="&#x44a;" horiz-adv-x="1331" d="M29 686v315h624v-389h265q172 0 264 -85t92 -220q0 -74 -25.5 -131t-70.5 -96t-106.5 -59.5t-135.5 -20.5h-500v856h-254v-170h-153zM653 143h232q80 0 128 42t48 122q0 88 -53.5 128t-139.5 40h-215v-332z" />
<glyph unicode="&#x44b;" horiz-adv-x="1574" d="M45 856v145h361v-391h264q174 0 265 -85t91 -218q0 -74 -25.5 -131t-70.5 -96t-106.5 -59.5t-133.5 -20.5h-497v856h-148zM406 141h231q82 0 129 43t47 123q0 88 -54 128t-138 40h-215v-334zM1044 854v147h330v-843h148v-131q-45 -20 -101.5 -29.5t-97.5 -9.5 q-94 0 -131 49t-37 147v670h-111z" />
<glyph unicode="&#x44c;" horiz-adv-x="1085" d="M45 856v145h361v-391h264q174 0 265 -85t91 -218q0 -74 -25.5 -131t-70.5 -96t-106.5 -59.5t-133.5 -20.5h-497v856h-148zM406 141h231q82 0 129 43t47 123q0 88 -54 128t-138 40h-215v-334z" />
<glyph unicode="&#x44d;" horiz-adv-x="995" d="M57 68l47 133q72 -27 138.5 -42.5t142.5 -15.5q72 0 125 25t89 68t54.5 101t18.5 126l-379 -10v135l381 -8q-10 133 -69.5 211.5t-182.5 78.5q-80 0 -160 -20v-145h-149l-2 262q66 29 151.5 43t169.5 14q143 0 233.5 -45t141.5 -115.5t70.5 -160t19.5 -177.5 q0 -106 -24.5 -203.5t-83 -172t-151.5 -119.5t-228 -45q-98 0 -190.5 22.5t-162.5 59.5z" />
<glyph unicode="&#x44e;" horiz-adv-x="1574" d="M47 854v147h359v-409h184q10 88 41 166t86 137t136 94t191 35q123 0 209 -44t139.5 -116.5t77 -168t23.5 -195.5t-24.5 -193.5t-79 -165t-143.5 -114.5t-218 -43q-117 0 -200 37.5t-135 102t-77.5 150.5t-29.5 185h-180v-459h-216v854h-143zM805 496q0 -70 8 -134.5 t33.5 -113.5t73 -78t124.5 -29q70 0 114 31t69.5 82t35 114.5t9.5 129.5q0 63 -9.5 127.5t-34 117t-68.5 86t-116 33.5t-117.5 -31.5t-72.5 -84t-38 -117.5t-11 -133z" />
<glyph unicode="&#x44f;" horiz-adv-x="1124" d="M29 6v123l133 16q37 66 84 145t82 144q-57 12 -96 39t-64 62.5t-35 77.5t-10 83q0 78 27.5 135.5t73.5 95.5t107.5 56t131.5 18h559v-147h-102v-696h139v-131q-43 -20 -97.5 -30.5t-95.5 -10.5q-88 0 -126 35.5t-40 125.5v263h-184l-176 -330q-25 -45 -59.5 -72.5 t-96.5 -27.5q-31 0 -72.5 6t-82.5 20zM336 692q0 -45 17.5 -73.5t45 -45t61.5 -22.5t64 -6h176v313h-190q-78 0 -126 -42t-48 -124z" />
<glyph unicode="&#x450;" horiz-adv-x="1034" d="M219 1431l129 129l274 -338l-80 -75zM82 498q0 74 18.5 165t69.5 171.5t141 135t232 54.5q145 0 228 -54.5t125 -131t52 -158.5t10 -137v-99h-655q0 -68 12.5 -123t43 -94t83 -60.5t129.5 -21.5q86 0 158 16.5t154 51.5l55 -137q-94 -49 -193.5 -71.5t-199.5 -22.5 q-141 0 -230.5 43t-141.5 114.5t-71.5 165t-19.5 193.5zM307 596h447q-2 55 -12.5 103.5t-35 85t-64.5 58t-101 21.5q-59 0 -102.5 -23.5t-71 -61.5t-43 -86t-17.5 -97z" />
<glyph unicode="&#x451;" horiz-adv-x="1034" d="M82 498q0 74 18.5 165t69.5 171.5t141 135t232 54.5q145 0 228 -54.5t125 -131t52 -158.5t10 -137v-99h-655q0 -68 12.5 -123t43 -94t83 -60.5t129.5 -21.5q86 0 158 16.5t154 51.5l55 -137q-94 -49 -193.5 -71.5t-199.5 -22.5q-141 0 -230.5 43t-141.5 114.5t-71.5 165 t-19.5 193.5zM203 1253q0 43 30.5 73t71.5 30q47 0 78 -29t31 -74q0 -43 -30 -72.5t-77 -29.5q-45 0 -74.5 29.5t-29.5 72.5zM307 596h447q-2 55 -12.5 103.5t-35 85t-64.5 58t-101 21.5q-59 0 -102.5 -23.5t-71 -61.5t-43 -86t-17.5 -97zM598 1253q0 43 29.5 73t70.5 30 q47 0 79 -29t32 -74q0 -43 -32 -72.5t-79 -29.5q-43 0 -71.5 29.5t-28.5 72.5z" />
<glyph unicode="&#x452;" horiz-adv-x="1163" d="M14 1315v145h383v-286h414v-99h-414v-219q166 80 305 80q193 0 285 -122t92 -388q0 -102 -20.5 -192.5t-71.5 -157t-136 -105.5t-216 -39h-24q-9 0 -21 2l2 150q70 2 121 18.5t84.5 54.5t50 104.5t16.5 168.5q0 104 -16.5 170t-46 104.5t-69.5 53t-87 14.5 q-55 0 -122.5 -19.5t-125.5 -47.5v-705h-221v1075h-106v99h106v141h-162z" />
<glyph unicode="&#x453;" horiz-adv-x="950" d="M70 0v147h108v709h-102v145h837v-315h-151v170h-369v-709h152v-147h-475zM307 1231l273 338l131 -129l-322 -285z" />
<glyph unicode="&#x454;" horiz-adv-x="964" d="M82 489q0 82 18.5 176.5t70.5 174.5t145.5 132t240.5 52q84 0 165 -15.5t146 -41.5q0 -66 -1 -131.5t-1 -130.5h-151v139q-35 10 -67 14t-64 4q-123 0 -196 -71.5t-83 -223.5l379 13v-136l-379 7q4 -68 19.5 -124.5t47 -97.5t80 -64.5t119.5 -23.5q76 0 146.5 16.5 t142.5 43.5l45 -133q-70 -37 -165 -59.5t-195 -22.5q-135 0 -224.5 38.5t-142.5 106.5t-74.5 160t-21.5 198z" />
<glyph unicode="&#x455;" horiz-adv-x="950" d="M61 305h158l6 -127q41 -23 98.5 -32t104.5 -9q92 0 156.5 30t64.5 103q0 37 -15.5 61.5t-42 42t-62 30t-74.5 24.5q-70 20 -137.5 40.5t-121 53.5t-86 81t-32.5 124q0 78 29.5 133t82 91t125 53.5t158.5 17.5q88 0 175 -17.5t155 -58.5q0 -59 1 -119.5t3 -121.5h-162 l-4 133q-70 29 -154 28q-78 0 -132 -29.5t-54 -101.5q0 -31 19.5 -52t49 -36.5t62.5 -26t62 -18.5q61 -18 128.5 -37.5t124 -54.5t92 -91.5t35.5 -148.5q0 -74 -30.5 -128t-87 -89t-136 -52t-176.5 -17q-88 0 -192.5 15t-185.5 62z" />
<glyph unicode="&#x456;" horiz-adv-x="645" d="M109 844v155h321v-841h148v-131q-43 -20 -99.5 -30.5t-97.5 -10.5q-88 0 -127 35.5t-41 125.5v697h-104zM180 1280q0 57 39 96t94 39q57 0 97.5 -39t40.5 -96q0 -55 -40 -95t-98 -40q-55 0 -94 40t-39 95z" />
<glyph unicode="&#x457;" horiz-adv-x="645" d="M-49 1239q0 43 30.5 72.5t71.5 29.5q47 0 78 -28.5t31 -73.5q0 -43 -30 -72.5t-77 -29.5q-45 0 -74.5 29.5t-29.5 72.5zM100 854v147h330v-843h148v-131q-43 -20 -99.5 -30.5t-97.5 -10.5q-88 0 -126 35.5t-40 125.5v707h-115zM346 1239q0 43 30 72.5t70 29.5 q47 0 79 -28.5t32 -73.5q0 -43 -31.5 -72.5t-79.5 -29.5q-43 0 -71.5 29.5t-28.5 72.5z" />
<glyph unicode="&#x458;" horiz-adv-x="614" d="M-43 -332q82 49 132 92t77 89.5t36 99.5t9 121v774h-135v155h352v-915q0 -113 -20.5 -199t-67.5 -151.5t-125 -115.5t-192 -89zM178 1280q0 57 39 96t96 39q53 0 94.5 -39t41.5 -96q0 -55 -41 -95t-95 -40q-57 0 -96 40t-39 95z" />
<glyph unicode="&#x459;" horiz-adv-x="1630" d="M37 100q76 37 123 88.5t71.5 126t32.5 177t8 241.5v123h-153v145h833v-389h267q170 0 262 -85t92 -220q0 -74 -25.5 -131t-70.5 -96t-106.5 -59.5t-135.5 -20.5h-498v856h-262v-90q0 -156 -12 -293t-52 -244.5t-115 -181.5t-198 -104zM952 143h232q80 0 128 42t48 122 q0 88 -53.5 128t-137.5 40h-217v-332z" />
<glyph unicode="&#x45a;" horiz-adv-x="1671" d="M47 856v145h348v-405h383v260h-139v145h354v-395h264q172 0 264.5 -82t92.5 -217q0 -74 -25.5 -131t-70.5 -96t-106.5 -59.5t-135.5 -20.5h-498v465h-383v-465h-215v856h-133zM993 143h236q78 0 125 41t47 121q0 88 -53.5 126t-135.5 38h-219v-326z" />
<glyph unicode="&#x45b;" horiz-adv-x="1245" d="M41 1323v137h362v-278h420v-99h-420v-249q84 53 176.5 82.5t168.5 29.5q100 0 160.5 -28.5t93 -74.5t43 -105.5t10.5 -121.5v-458h141v-131q-47 -20 -100.5 -30.5t-94.5 -10.5q-86 0 -124.5 35.5t-38.5 125.5v418q0 49 -5.5 87t-22.5 65.5t-50 42t-86 14.5 q-61 0 -137 -27.5t-134 -62.5v-684h-219v1083h-106v99h106v141h-143z" />
<glyph unicode="&#x45c;" horiz-adv-x="1132" d="M43 856v145h369v-854h125v-147h-476v147h132v709h-150zM442 1169l273 338l131 -129l-322 -284zM446 498v45l314 401q31 45 63.5 60.5t79.5 15.5q41 0 84 -11.5t72 -27.5l-10 -115l-123 -8l-271 -326l295 -387l140 -18v-111q-33 -16 -82.5 -24t-83.5 -10q-51 0 -85 13 t-63 54z" />
<glyph unicode="&#x45d;" horiz-adv-x="1267" d="M238 1429l129 129l274 -338l-80 -75zM45 854v145h356v-680h9q-6 -10 2 2.5t25.5 39t43 65.5t56.5 84q45 63 95 137t96 142.5t84 125t56 84.5h209q0 -211 1 -420.5t1 -422.5h142v-129q-47 -20 -99.5 -29.5t-93.5 -9.5q-49 0 -81 16t-51 42t-27.5 55.5t-8.5 56.5v522h-8 q-6 -10 -41 -64.5t-84 -126.5q-43 -66 -94 -139.5t-97.5 -142t-85 -124.5t-57.5 -83h-207v854h-141z" />
<glyph unicode="&#x45e;" horiz-adv-x="1148" d="M35 840v161h264q8 -25 28.5 -93t48 -159.5t58.5 -191.5t56.5 -187t44 -149.5t22.5 -77.5h10q4 14 21.5 66.5t40 123t49.5 151.5t50.5 154t41.5 129t27 77h-121v157h426v-157h-101l-364 -1061q-20 -53 -44 -94t-56.5 -69t-78.5 -43t-114 -15q-23 0 -86 5t-147 32l32 172 q45 -10 86 -15.5t76 -5.5q49 0 77 12.5t46 42t36.5 79.5t49.5 128h-108q-68 207 -134.5 413t-134.5 415h-102zM201 1372l106 80q59 -84 126 -129t124 -45q18 0 46 3t65 18.5t84 47t106 91.5l66 -64q-92 -139 -189.5 -192.5t-183.5 -53.5q-55 0 -105.5 20.5t-93.5 54.5 t-80.5 78t-70.5 91z" />
<glyph unicode="&#x45f;" horiz-adv-x="1253" d="M68 854v147h338v-854h438v707h-99v147h422v-147h-104v-704q25 0 60.5 -1.5t62.5 -1.5v-147h-473v-307h-174v307h-469v147h120v707h-122z" />
<glyph unicode="&#x470;" horiz-adv-x="1740" d="M53 1251v154h357v-518q0 -172 91 -255t263 -93v712h-115v154h451v-154h-117v-712q176 10 265 94t91 260v512h351v-154h-129v-364q-2 -229 -146.5 -364.5t-431.5 -143.5v-225h150v-154h-515v154h146v223q-293 14 -435.5 146t-142.5 384v344h-133z" />
<glyph unicode="&#x471;" horiz-adv-x="1536" d="M31 844v155h334v-602q0 -41 17 -82t54 -76.5t93.5 -59t132.5 -25.5v872h-113v162h325v-1034q82 2 139.5 25.5t92.5 60t50 86t15 104.5v569h334v-155h-119v-447q0 -86 -35.5 -159.5t-101 -128t-161 -86t-214.5 -33.5v-264h158v-156h-518v156h148v264q-121 2 -216.5 33.5 t-161 86t-100 128t-34.5 159.5v447h-119z" />
<glyph unicode="&#x490;" horiz-adv-x="1183" d="M86 0v154h139v1097h-135v152h893v266h166v-418h-698v-1097h194v-154h-559z" />
<glyph unicode="&#x491;" horiz-adv-x="946" d="M70 0v147h108v707h-104v147h680v224h153v-371h-514v-707h150v-147h-473z" />
<glyph unicode="&#x4ae;" horiz-adv-x="1271" d="M25 1243v162h464v-162h-118l262 -493h8l270 493h-120v162h458v-162h-114l-387 -655v-430h163v-158h-559v158h164v424l-379 661h-112z" />
<glyph unicode="&#x4c0;" horiz-adv-x="780" d="M143 0v158h133v1087h-133v160h494v-160h-135v-1087h135v-158h-494z" />
<glyph unicode="&#x4c1;" horiz-adv-x="1992" d="M635 1794l106 80q59 -84 126 -129t124 -45q18 0 46 3t64.5 18.5t84 47t106.5 91.5l66 -64q-92 -139 -189.5 -192.5t-183.5 -53.5q-55 0 -105.5 20.5t-93.5 54.5t-80.5 78t-70.5 91zM37 18v129l192 19l389 573l-368 488l-182 16l-15 129q90 47 193 47q43 0 74.5 -15 t66.5 -61l438 -585v-66l-432 -631q-35 -53 -77 -65t-89 -12t-98 9t-92 25zM756 0v154h131v1095h-131v154h485v-154h-133v-1095h133v-154h-485zM1167 692v66l424 579q35 49 73 65.5t83 16.5q102 0 192 -47l-12 -129l-182 -16l-371 -488l389 -573l195 -19v-129 q-47 -16 -101.5 -25t-91.5 -9q-53 0 -96 12t-74 57z" />
<glyph unicode="&#x4c2;" horiz-adv-x="1656" d="M469 1388l106 80q59 -84 126 -129t124 -45q18 0 46 3t64.5 18.5t84 47t106.5 91.5l66 -64q-92 -139 -189.5 -192.5t-183.5 -53.5q-55 0 -105.5 20.5t-93.5 54.5t-80.5 78t-70.5 91zM53 16v111l140 18l276 387l-252 326l-123 8l-10 115q29 16 72 27.5t84 11.5 q47 0 79.5 -15.5t63.5 -60.5l295 -401v-45l-311 -449q-29 -41 -63 -54t-85 -13q-35 2 -84 10t-82 24zM600 852v147h457v-147h-123v-707h125v-145h-457v145h115v707h-117zM971 498v45l307 401q31 45 63.5 60.5t79.5 15.5q41 0 84 -11.5t72 -27.5l-10 -115l-123 -8l-264 -326 l288 -387l140 -18v-111q-33 -16 -82 -24t-84 -10q-51 0 -85 13t-63 54z" />
<glyph unicode="&#x4d0;" horiz-adv-x="1427" d="M359 1794l106 80q59 -84 126 -129t124 -45q18 0 46 3t64.5 18.5t84 47t106.5 91.5l66 -64q-92 -139 -189.5 -192.5t-183.5 -53.5q-55 0 -105.5 20.5t-93.5 54.5t-80.5 78t-70.5 91zM41 0v156h115l424 1249h280q100 -305 207 -624.5t207 -624.5h115v-156h-480v156h135 q-16 53 -36.5 117.5t-36.5 113.5h-527q-14 -43 -34.5 -108.5t-36.5 -122.5h139v-156h-471zM498 543h426q-41 139 -84 275t-88 276q-8 31 -17.5 61.5t-19.5 61.5h-4l-39 -125q-18 -55 -41 -126t-47.5 -146t-47 -147.5t-38.5 -129.5z" />
<glyph unicode="&#x4d1;" horiz-adv-x="1099" d="M187 1388l106 80q59 -84 126 -129t124 -45q18 0 46 3t64.5 18.5t84 47t106.5 91.5l66 -64q-92 -139 -189.5 -192.5t-183.5 -53.5q-55 0 -105.5 20.5t-93.5 54.5t-80.5 78t-70.5 91zM68 270q0 61 21.5 112.5t68.5 90.5t120.5 64.5t178.5 31.5l241 17v59q0 113 -43 160 t-157 47q-74 0 -155 -14.5t-153 -38.5l-20 69l-20 70q86 39 193.5 59.5t205.5 20.5q168 0 262 -75t94 -263v-526h156l12 -123q-20 -12 -51 -20.5t-63.5 -13.5t-63.5 -7t-51 -2q-59 0 -97 22.5t-40 102.5q-2 0 -2 1t-3 1q-55 -49 -106 -76t-95 -40t-79 -15t-57 -2 q-90 0 -147.5 28.5t-91.5 71.5t-46 94t-12 94zM295 293q0 -80 39 -118t127 -38q55 0 119.5 29t113.5 76v225l-223 -16q-86 -6 -131 -50.5t-45 -107.5z" />
<glyph unicode="&#x4d2;" horiz-adv-x="1427" d="M416 1653q0 43 31 72.5t72 29.5q47 0 77.5 -28.5t30.5 -73.5q0 -43 -29.5 -72.5t-76.5 -29.5q-45 0 -75 29.5t-30 72.5zM811 1653q0 43 30 72.5t71 29.5q47 0 78.5 -28.5t31.5 -73.5q0 -43 -31.5 -72.5t-78.5 -29.5q-43 0 -72 29.5t-29 72.5zM41 0v156h115l424 1249h280 q100 -305 207 -624.5t207 -624.5h115v-156h-480v156h135q-16 53 -36.5 117.5t-36.5 113.5h-527q-14 -43 -34.5 -108.5t-36.5 -122.5h139v-156h-471zM498 543h426q-41 139 -84 275t-88 276q-8 31 -17.5 61.5t-19.5 61.5h-4l-39 -125q-18 -55 -41 -126t-47.5 -146t-47 -147.5 t-38.5 -129.5z" />
<glyph unicode="&#x4d3;" horiz-adv-x="1099" d="M246 1247q0 43 31 72.5t72 29.5q47 0 77.5 -28.5t30.5 -73.5q0 -43 -29.5 -72.5t-76.5 -29.5q-45 0 -75 29.5t-30 72.5zM641 1247q0 43 30 72.5t71 29.5q47 0 78.5 -28.5t31.5 -73.5q0 -43 -31.5 -72.5t-78.5 -29.5q-43 0 -72 29.5t-29 72.5zM68 270q0 61 21.5 112.5 t68.5 90.5t120.5 64.5t178.5 31.5l241 17v59q0 113 -43 160t-157 47q-74 0 -155 -14.5t-153 -38.5l-20 69l-20 70q86 39 193.5 59.5t205.5 20.5q168 0 262 -75t94 -263v-526h156l12 -123q-20 -12 -51 -20.5t-63.5 -13.5t-63.5 -7t-51 -2q-59 0 -97 22.5t-40 102.5q-2 0 -2 1 t-3 1q-55 -49 -106 -76t-95 -40t-79 -15t-57 -2q-90 0 -147.5 28.5t-91.5 71.5t-46 94t-12 94zM295 293q0 -80 39 -118t127 -38q55 0 119.5 29t113.5 76v225l-223 -16q-86 -6 -131 -50.5t-45 -107.5z" />
<glyph unicode="&#x4d4;" horiz-adv-x="2017" d="M12 0v154h121l684 1093h-112v156h1202v-354h-166v202h-473v-446l444 10v-162l-444 9v-508h499v208h168v-362h-1034v154h141v266h-512l-163 -266h139v-154h-494zM618 573h424v666h-10z" />
<glyph unicode="&#x4d5;" horiz-adv-x="1656" d="M66 270q0 59 21.5 114.5t65.5 97.5t112.5 66.5t162.5 24.5h295v74q0 117 -53.5 162t-169.5 45q-82 0 -163 -14.5t-153 -38.5l-41 139q86 39 194.5 60.5t207.5 21.5q100 0 185 -35t122 -117q49 68 128 111t198 43q145 0 227 -54.5t123 -131t51 -158.5t10 -137v-80h-651 q0 -68 12.5 -125t43 -99t82.5 -67t130 -25q84 0 157 16.5t155 49.5l45 -133q-92 -49 -188.5 -71.5t-194.5 -22.5q-145 0 -230.5 40t-136.5 113q-74 -57 -139.5 -89t-121.5 -47t-101 -18t-76 -3q-94 0 -153.5 29.5t-94.5 72.5t-48 93t-13 93zM293 297q0 -168 172 -168 q25 0 61.5 7t76.5 22.5t81 36t72 49.5q-16 49 -24.5 103t-10.5 114h-229q-98 0 -148.5 -44t-50.5 -120zM942 573h449q0 66 -10.5 120.5t-35 92t-65.5 59t-102 21.5q-63 0 -106.5 -24.5t-71 -64.5t-41 -93.5t-17.5 -110.5z" />
<glyph unicode="&#x4d6;" horiz-adv-x="1243" d="M261 1794l106 80q59 -84 126 -129t124 -45q18 0 46 3t64.5 18.5t84 47t106.5 91.5l66 -64q-92 -139 -189.5 -192.5t-183.5 -53.5q-55 0 -105.5 20.5t-93.5 54.5t-80.5 78t-70.5 91zM86 0v160h139v1085h-135v158h1063v-367h-166v209h-536v-440l497 10v-162l-497 9v-502 h563v215h168v-375h-1096z" />
<glyph unicode="&#x4d7;" horiz-adv-x="1034" d="M183 1390l106 80q59 -84 126 -129t124 -45q18 0 46 3t64.5 18.5t84 47t106.5 91.5l66 -64q-92 -139 -189.5 -192.5t-183.5 -53.5q-55 0 -105.5 20.5t-93.5 54.5t-80.5 78t-70.5 91zM82 498q0 74 18.5 165t69.5 171.5t141 135t232 54.5q145 0 228 -54.5t125 -131 t52 -158.5t10 -137v-99h-655q0 -68 12.5 -123t43 -94t83 -60.5t129.5 -21.5q86 0 158 16.5t154 51.5l55 -137q-94 -49 -193.5 -71.5t-199.5 -22.5q-141 0 -230.5 43t-141.5 114.5t-71.5 165t-19.5 193.5zM307 596h447q-2 55 -12.5 103.5t-35 85t-64.5 58t-101 21.5 q-59 0 -102.5 -23.5t-71 -61.5t-43 -86t-17.5 -97z" />
<glyph unicode="&#x4d9;" horiz-adv-x="1034" d="M90 469v74h658q0 68 -13.5 126t-44.5 101t-83 68.5t-130 25.5q-84 0 -156.5 -17.5t-154.5 -49.5l-49 131q92 53 189 74.5t198 21.5q141 0 230 -41t141.5 -111.5t72 -163t19.5 -196.5q0 -74 -17.5 -165t-69 -172t-141.5 -135t-233 -54q-96 0 -165 25.5t-115 66.5t-73.5 94 t-41 106.5t-17.5 103.5t-4 87zM293 436q0 -66 10 -120t34.5 -92t65.5 -59.5t103 -21.5q63 0 107 25t72 64.5t41 93t17 110.5h-450z" />
<glyph unicode="&#x4db;" horiz-adv-x="1034" d="M201 1249q0 43 31 72.5t72 29.5q47 0 77.5 -28.5t30.5 -73.5q0 -43 -29.5 -72.5t-76.5 -29.5q-45 0 -75 29.5t-30 72.5zM596 1249q0 43 30 72.5t71 29.5q47 0 78.5 -28.5t31.5 -73.5q0 -43 -31.5 -72.5t-78.5 -29.5q-43 0 -72 29.5t-29 72.5zM90 469v74h658 q0 68 -13.5 126t-44.5 101t-83 68.5t-130 25.5q-84 0 -156.5 -17.5t-154.5 -49.5l-49 131q92 53 189 74.5t198 21.5q141 0 230 -41t141.5 -111.5t72 -163t19.5 -196.5q0 -74 -17.5 -165t-69 -172t-141.5 -135t-233 -54q-96 0 -165 25.5t-115 66.5t-73.5 94t-41 106.5 t-17.5 103.5t-4 87zM293 436q0 -66 10 -120t34.5 -92t65.5 -59.5t103 -21.5q63 0 107 25t72 64.5t41 93t17 110.5h-450z" />
<glyph unicode="&#x4dc;" horiz-adv-x="1992" d="M694 1653q0 43 31 72.5t72 29.5q47 0 77.5 -28.5t30.5 -73.5q0 -43 -29.5 -72.5t-76.5 -29.5q-45 0 -75 29.5t-30 72.5zM1089 1653q0 43 30 72.5t71 29.5q47 0 78.5 -28.5t31.5 -73.5q0 -43 -31.5 -72.5t-78.5 -29.5q-43 0 -72 29.5t-29 72.5zM37 18v129l192 19l389 573 l-368 488l-182 16l-15 129q90 47 193 47q43 0 74.5 -15t66.5 -61l438 -585v-66l-432 -631q-35 -53 -77 -65t-89 -12t-98 9t-92 25zM756 0v154h131v1095h-131v154h485v-154h-133v-1095h133v-154h-485zM1167 692v66l424 579q35 49 73 65.5t83 16.5q102 0 192 -47l-12 -129 l-182 -16l-371 -488l389 -573l195 -19v-129q-47 -16 -101.5 -25t-91.5 -9q-53 0 -96 12t-74 57z" />
<glyph unicode="&#x4dd;" horiz-adv-x="1656" d="M526 1247q0 43 31 72.5t72 29.5q47 0 77.5 -28.5t30.5 -73.5q0 -43 -29.5 -72.5t-76.5 -29.5q-45 0 -75 29.5t-30 72.5zM921 1247q0 43 30 72.5t71 29.5q47 0 78.5 -28.5t31.5 -73.5q0 -43 -31.5 -72.5t-78.5 -29.5q-43 0 -72 29.5t-29 72.5zM53 16v111l140 18l276 387 l-252 326l-123 8l-10 115q29 16 72 27.5t84 11.5q47 0 79.5 -15.5t63.5 -60.5l295 -401v-45l-311 -449q-29 -41 -63 -54t-85 -13q-35 2 -84 10t-82 24zM600 852v147h457v-147h-123v-707h125v-145h-457v145h115v707h-117zM971 498v45l307 401q31 45 63.5 60.5t79.5 15.5 q41 0 84 -11.5t72 -27.5l-10 -115l-123 -8l-264 -326l288 -387l140 -18v-111q-33 -16 -82 -24t-84 -10q-51 0 -85 13t-63 54z" />
<glyph unicode="&#x4de;" horiz-adv-x="1204" d="M264 1653q0 43 31 72.5t72 29.5q47 0 77.5 -28.5t30.5 -73.5q0 -43 -29.5 -72.5t-76.5 -29.5q-45 0 -75 29.5t-30 72.5zM659 1653q0 43 30 72.5t71 29.5q47 0 78.5 -28.5t31.5 -73.5q0 -43 -31.5 -72.5t-78.5 -29.5q-43 0 -72 29.5t-29 72.5zM66 72l49 151 q106 -29 195 -45t149 -16q410 0 409 272q0 59 -23.5 105.5t-66.5 78t-102.5 48t-128.5 16.5h-174v147h164q72 0 127 19.5t92 52.5t56 74t19 84q0 57 -21.5 96t-59 63.5t-91 35t-116.5 10.5q-66 0 -132.5 -12.5t-119.5 -34.5v-211h-170v331q47 23 103.5 39.5t114.5 27.5 t116.5 17t111.5 6q98 0 188.5 -17t159 -58t109.5 -107.5t41 -167.5q0 -41 -14.5 -86t-44 -86t-71.5 -75.5t-97 -55.5v-2q123 -39 193.5 -126t70.5 -212q0 -113 -45 -195.5t-123 -138t-181.5 -83t-217.5 -27.5q-53 0 -114 4t-123 13t-121.5 25.5t-110.5 39.5z" />
<glyph unicode="&#x4df;" horiz-adv-x="954" d="M160 1251q0 43 31 72.5t72 29.5q47 0 77.5 -28.5t30.5 -73.5q0 -43 -29.5 -72.5t-76.5 -29.5q-45 0 -75 29.5t-30 72.5zM555 1251q0 43 30 72.5t71 29.5q47 0 78.5 -28.5t31.5 -73.5q0 -43 -31.5 -72.5t-78.5 -29.5q-43 0 -72 29.5t-29 72.5zM45 53l43 135 q80 -27 148.5 -40t138.5 -13q129 0 200.5 42t71.5 140q0 45 -19.5 75t-49 47.5t-65.5 23.5t-69 6h-145v131h121q33 0 68.5 6t65.5 21.5t48.5 43t18.5 70.5q0 59 -44.5 96t-140.5 37q-47 0 -97 -6t-101 -22v-150h-152v256q76 35 178.5 54.5t198.5 19.5q182 0 280.5 -69.5 t98.5 -188.5q0 -82 -47 -138.5t-115 -80.5v-6q84 -23 135 -87.5t51 -150.5q0 -80 -33.5 -139.5t-93 -100t-141.5 -61t-180 -20.5q-111 0 -212.5 21t-160.5 48z" />
<glyph unicode="&#x4e2;" horiz-adv-x="1548" d="M424 1550v156h705v-156h-705zM80 0v154h145v1095h-141v152h504v-152h-142v-815h5q166 190 329.5 378.5t329.5 379.5v57h-162v152h522v-152h-143v-1095h143v-154h-503v154h141v823h-4q-166 -193 -329 -382t-329 -380v-61h138v-154h-504z" />
<glyph unicode="&#x4e3;" horiz-adv-x="1267" d="M209 1145v156h705v-156h-705zM45 854v145h356v-680h9q-6 -10 2 2.5t25.5 39t43 65.5t56.5 84q45 63 95 137t96 142.5t84 125t56 84.5h209q0 -211 1 -420.5t1 -422.5h142v-129q-47 -20 -99.5 -29.5t-93.5 -9.5q-49 0 -81 16t-51 42t-27.5 55.5t-8.5 56.5v522h-8 q-6 -10 -41 -64.5t-84 -126.5q-43 -66 -94 -139.5t-97.5 -142t-85 -124.5t-57.5 -83h-207v854h-141z" />
<glyph unicode="&#x4e4;" horiz-adv-x="1548" d="M473 1653q0 43 31 72.5t72 29.5q47 0 77.5 -28.5t30.5 -73.5q0 -43 -29.5 -72.5t-76.5 -29.5q-45 0 -75 29.5t-30 72.5zM868 1653q0 43 30 72.5t71 29.5q47 0 78.5 -28.5t31.5 -73.5q0 -43 -31.5 -72.5t-78.5 -29.5q-43 0 -72 29.5t-29 72.5zM80 0v154h145v1095h-141v152 h504v-152h-142v-815h5q166 190 329.5 378.5t329.5 379.5v57h-162v152h522v-152h-143v-1095h143v-154h-503v154h141v823h-4q-166 -193 -329 -382t-329 -380v-61h138v-154h-504z" />
<glyph unicode="&#x4e5;" horiz-adv-x="1267" d="M258 1247q0 43 31 72.5t72 29.5q47 0 77.5 -28.5t30.5 -73.5q0 -43 -29.5 -72.5t-76.5 -29.5q-45 0 -75 29.5t-30 72.5zM653 1247q0 43 30 72.5t71 29.5q47 0 78.5 -28.5t31.5 -73.5q0 -43 -31.5 -72.5t-78.5 -29.5q-43 0 -72 29.5t-29 72.5zM45 854v145h356v-680h9 q-6 -10 2 2.5t25.5 39t43 65.5t56.5 84q45 63 95 137t96 142.5t84 125t56 84.5h209q0 -211 1 -420.5t1 -422.5h142v-129q-47 -20 -99.5 -29.5t-93.5 -9.5q-49 0 -81 16t-51 42t-27.5 55.5t-8.5 56.5v522h-8q-6 -10 -41 -64.5t-84 -126.5q-43 -66 -94 -139.5t-97.5 -142 t-85 -124.5t-57.5 -83h-207v854h-141z" />
<glyph unicode="&#x4e6;" horiz-adv-x="1443" d="M426 1653q0 43 31 72.5t72 29.5q47 0 77.5 -28.5t30.5 -73.5q0 -43 -29.5 -72.5t-76.5 -29.5q-45 0 -75 29.5t-30 72.5zM821 1653q0 43 30 72.5t71 29.5q47 0 78.5 -28.5t31.5 -73.5q0 -43 -31.5 -72.5t-78.5 -29.5q-43 0 -72 29.5t-29 72.5zM102 694q0 147 34 280.5 t110 234t194.5 159.5t288.5 59q172 0 290 -59t189.5 -158.5t102 -231.5t30.5 -278q0 -154 -38.5 -284.5t-115.5 -228t-191.5 -151.5t-266.5 -54q-166 0 -284.5 51t-194.5 144t-112 224t-36 293zM338 692q0 -264 91 -402t300 -138q98 0 169 42t117 114.5t67.5 172t21.5 213.5 q0 100 -14.5 201.5t-55.5 181.5t-114.5 130t-190.5 50t-192.5 -47t-119.5 -125.5t-61.5 -181t-17.5 -211.5z" />
<glyph unicode="&#x4e7;" horiz-adv-x="1101" d="M254 1247q0 43 31 72.5t72 29.5q47 0 77.5 -28.5t30.5 -73.5q0 -43 -29.5 -72.5t-76.5 -29.5q-45 0 -75 29.5t-30 72.5zM649 1247q0 43 30 72.5t71 29.5q47 0 78.5 -28.5t31.5 -73.5q0 -43 -31.5 -72.5t-78.5 -29.5q-43 0 -72 29.5t-29 72.5zM82 496q0 102 26.5 197 t84 168t147.5 117t217 44q129 0 218 -44t143.5 -115.5t78 -167t23.5 -195.5t-24.5 -193.5t-81 -165t-147.5 -114.5t-226 -43q-127 0 -214 41t-141.5 111.5t-79 163t-24.5 196.5zM307 496q0 -70 9.5 -133.5t36 -111.5t74.5 -77t128 -29q74 0 121 31t73.5 80t37 111.5 t10.5 128.5q0 63 -9.5 127.5t-35 117t-71.5 85t-120 32.5q-76 0 -125 -31.5t-77.5 -83t-40 -115.5t-11.5 -132z" />
<glyph unicode="&#x4e8;" horiz-adv-x="1443" d="M102 694q0 147 34 280.5t110 234t194.5 159.5t288.5 59q172 0 290 -59t189.5 -158.5t102 -231.5t30.5 -278q0 -154 -38.5 -284.5t-115.5 -228t-191.5 -151.5t-266.5 -54q-166 0 -284.5 51t-194.5 144t-112 224t-36 293zM338 692q0 -264 91 -404.5t300 -140.5q98 0 169 42 t117 116t67.5 174.5t21.5 214.5q0 100 -14.5 202.5t-55.5 183.5t-114.5 132.5t-190.5 51.5t-192.5 -48.5t-119.5 -128t-61.5 -183t-17.5 -212.5zM451 653v150l536 8v-164z" />
<glyph unicode="&#x4e9;" horiz-adv-x="1095" d="M72 715q0 143 20.5 279t73.5 241.5t146.5 169t238.5 63.5t236.5 -64.5t142.5 -169t69.5 -238.5t18.5 -271q0 -145 -21.5 -278.5t-76 -235.5t-147.5 -163.5t-234 -61.5q-145 0 -236.5 57t-142.5 156.5t-69.5 232.5t-18.5 283zM293 678q0 -127 6 -226.5t32.5 -168 t78 -105.5t137.5 -37q80 0 129 45t76.5 121t36 172t8.5 199h-504zM293 827h502q-2 90 -11.5 176.5t-36 154t-73.5 108.5t-123 41q-80 0 -130 -40t-78 -105.5t-38 -153t-12 -181.5z" />
<glyph unicode="&#x4ea;" horiz-adv-x="1443" d="M426 1653q0 43 31 72.5t72 29.5q47 0 77.5 -28.5t30.5 -73.5q0 -43 -29.5 -72.5t-76.5 -29.5q-45 0 -75 29.5t-30 72.5zM821 1653q0 43 30 72.5t71 29.5q47 0 78.5 -28.5t31.5 -73.5q0 -43 -31.5 -72.5t-78.5 -29.5q-43 0 -72 29.5t-29 72.5zM102 694q0 147 34 280.5 t110 234t194.5 159.5t288.5 59q172 0 290 -59t189.5 -158.5t102 -231.5t30.5 -278q0 -154 -38.5 -284.5t-115.5 -228t-191.5 -151.5t-266.5 -54q-166 0 -284.5 51t-194.5 144t-112 224t-36 293zM338 692q0 -264 91 -404.5t300 -140.5q98 0 169 42t117 116t67.5 174.5 t21.5 214.5q0 100 -14.5 202.5t-55.5 183.5t-114.5 132.5t-190.5 51.5t-192.5 -48.5t-119.5 -128t-61.5 -183t-17.5 -212.5zM451 653v150l536 8v-164z" />
<glyph unicode="&#x4eb;" horiz-adv-x="1095" d="M248 1694q0 43 31 72.5t72 29.5q47 0 77.5 -28.5t30.5 -73.5q0 -43 -29.5 -72.5t-76.5 -29.5q-45 0 -75 29.5t-30 72.5zM643 1694q0 43 30 72.5t71 29.5q47 0 78.5 -28.5t31.5 -73.5q0 -43 -31.5 -72.5t-78.5 -29.5q-43 0 -72 29.5t-29 72.5zM72 715q0 143 20.5 279 t73.5 241.5t146.5 169t238.5 63.5t236.5 -64.5t142.5 -169t69.5 -238.5t18.5 -271q0 -145 -21.5 -278.5t-76 -235.5t-147.5 -163.5t-234 -61.5q-145 0 -236.5 57t-142.5 156.5t-69.5 232.5t-18.5 283zM293 678q0 -127 6 -226.5t32.5 -168t78 -105.5t137.5 -37q80 0 129 45 t76.5 121t36 172t8.5 199h-504zM293 827h502q-2 90 -11.5 176.5t-36 154t-73.5 108.5t-123 41q-80 0 -130 -40t-78 -105.5t-38 -153t-12 -181.5z" />
<glyph unicode="&#x4ec;" horiz-adv-x="1214" d="M196 1653q0 43 31 72.5t72 29.5q47 0 77.5 -28.5t30.5 -73.5q0 -43 -29.5 -72.5t-76.5 -29.5q-45 0 -75 29.5t-30 72.5zM591 1653q0 43 30 72.5t71 29.5q47 0 78.5 -28.5t31.5 -73.5q0 -43 -31.5 -72.5t-78.5 -29.5q-43 0 -72 29.5t-29 72.5zM59 49l39 160 q41 -10 87 -19.5t90 -15.5t83 -9t68 -3q121 0 209 38t144.5 104.5t83 157.5t24.5 197l-510 -8v162l510 -10q-2 102 -25.5 185t-70 142.5t-119 91t-172.5 31.5q-53 0 -118 -9t-103 -19v-199h-166v342q72 25 172 42t215 17q193 0 314.5 -60t190 -158.5t93 -224.5t24.5 -257 q0 -147 -35.5 -282.5t-114.5 -237t-204 -161.5t-305 -60q-102 0 -214 15t-190 48z" />
<glyph unicode="&#x4ed;" horiz-adv-x="995" d="M129 1249q0 43 31 72.5t72 29.5q47 0 77.5 -28.5t30.5 -73.5q0 -43 -29.5 -72.5t-76.5 -29.5q-45 0 -75 29.5t-30 72.5zM524 1249q0 43 30 72.5t71 29.5q47 0 78.5 -28.5t31.5 -73.5q0 -43 -31.5 -72.5t-78.5 -29.5q-43 0 -72 29.5t-29 72.5zM57 68l47 133 q72 -27 138.5 -42.5t142.5 -15.5q72 0 125 25t89 68t54.5 101t18.5 126l-379 -10v135l381 -8q-10 133 -69.5 211.5t-182.5 78.5q-80 0 -160 -20v-145h-149l-2 262q66 29 151.5 43t169.5 14q143 0 233.5 -45t141.5 -115.5t70.5 -160t19.5 -177.5q0 -106 -24.5 -203.5 t-83 -172t-151.5 -119.5t-228 -45q-98 0 -190.5 22.5t-162.5 59.5z" />
<glyph unicode="&#x4ee;" horiz-adv-x="1273" d="M282 1550v156h705v-156h-705zM18 1249v156h457v-156h-127l172 -428l125 -329h10l119 331l160 426h-131v156h448v-156h-104l-414 -1052q-47 -117 -110.5 -166t-165.5 -49q-37 0 -97.5 5t-158.5 33l35 148q53 -10 94 -16.5t73 -6.5q47 0 80 26t60 91l35 90h-70l-383 897 h-107z" />
<glyph unicode="&#x4ef;" horiz-adv-x="1148" d="M217 1145v156h705v-156h-705zM31 842v159h268l166 -542l96 -320h10l101 312l133 399h-125v151h428v-151h-100l-359 -1022q-18 -53 -41.5 -101.5t-58.5 -85t-87 -58t-128 -21.5q-29 0 -82 5t-141 32l28 145q47 -10 87 -15t75 -5q72 0 112 49t66 131l35 108h-104l-273 830 h-106z" />
<glyph unicode="&#x4f0;" horiz-adv-x="1273" d="M332 1653q0 43 31 72.5t72 29.5q47 0 77.5 -28.5t30.5 -73.5q0 -43 -29.5 -72.5t-76.5 -29.5q-45 0 -75 29.5t-30 72.5zM727 1653q0 43 30 72.5t71 29.5q47 0 78.5 -28.5t31.5 -73.5q0 -43 -31.5 -72.5t-78.5 -29.5q-43 0 -72 29.5t-29 72.5zM18 1249v156h457v-156h-127 l172 -428l125 -329h10l119 331l160 426h-131v156h448v-156h-104l-414 -1052q-47 -117 -110.5 -166t-165.5 -49q-37 0 -97.5 5t-158.5 33l35 148q53 -10 94 -16.5t73 -6.5q47 0 80 26t60 91l35 90h-70l-383 897h-107z" />
<glyph unicode="&#x4f1;" horiz-adv-x="1148" d="M266 1247q0 43 31 72.5t72 29.5q47 0 77.5 -28.5t30.5 -73.5q0 -43 -29.5 -72.5t-76.5 -29.5q-45 0 -75 29.5t-30 72.5zM661 1247q0 43 30 72.5t71 29.5q47 0 78.5 -28.5t31.5 -73.5q0 -43 -31.5 -72.5t-78.5 -29.5q-43 0 -72 29.5t-29 72.5zM31 842v159h268l166 -542 l96 -320h10l101 312l133 399h-125v151h428v-151h-100l-359 -1022q-18 -53 -41.5 -101.5t-58.5 -85t-87 -58t-128 -21.5q-29 0 -82 5t-141 32l28 145q47 -10 87 -15t75 -5q72 0 112 49t66 131l35 108h-104l-273 830h-106z" />
<glyph unicode="&#x4f2;" horiz-adv-x="1273" d="M401 1618l252 359l143 -117l-307 -309zM690 1618l250 359l143 -117l-305 -309zM18 1249v156h457v-156h-127l172 -428l125 -329h10l119 331l160 426h-131v156h448v-156h-104l-414 -1052q-47 -117 -110.5 -166t-165.5 -49q-37 0 -97.5 5t-158.5 33l35 148q53 -10 94 -16.5 t73 -6.5q47 0 80 26t60 91l35 90h-70l-383 897h-107z" />
<glyph unicode="&#x4f3;" horiz-adv-x="1148" d="M336 1212l252 359l143 -117l-307 -309zM625 1212l250 359l143 -117l-305 -309zM31 842v159h268l166 -542l96 -320h10l101 312l133 399h-125v151h428v-151h-100l-359 -1022q-18 -53 -41.5 -101.5t-58.5 -85t-87 -58t-128 -21.5q-29 0 -82 5t-141 32l28 145q47 -10 87 -15 t75 -5q72 0 112 49t66 131l35 108h-104l-273 830h-106z" />
<glyph unicode="&#x4f4;" horiz-adv-x="1427" d="M391 1653q0 43 31 72.5t72 29.5q47 0 77.5 -28.5t30.5 -73.5q0 -43 -29.5 -72.5t-76.5 -29.5q-45 0 -75 29.5t-30 72.5zM786 1653q0 43 30 72.5t71 29.5q47 0 78.5 -28.5t31.5 -73.5q0 -43 -31.5 -72.5t-78.5 -29.5q-43 0 -72 29.5t-29 72.5zM53 1247v154h488v-154h-129 v-313q0 -123 69.5 -171t186.5 -50q80 0 160.5 17.5t150.5 43.5v473h-127v154h485v-154h-137v-1093h137v-154h-493v154h135v452q-92 -29 -181 -44t-175 -15q-90 0 -170 19.5t-139.5 59.5t-93.5 104.5t-34 156.5v360h-133z" />
<glyph unicode="&#x4f5;" horiz-adv-x="1212" d="M608 1247q0 43 31 72.5t72 29.5q47 0 77.5 -28.5t30.5 -73.5q0 -43 -29.5 -72.5t-76.5 -29.5q-45 0 -75 29.5t-30 72.5zM1003 1247q0 43 30 72.5t71 29.5q47 0 78.5 -28.5t31.5 -73.5q0 -43 -31.5 -72.5t-78.5 -29.5q-43 0 -72 29.5t-29 72.5zM29 854v147h362v-274 q0 -102 32 -152.5t130 -50.5q63 0 127.5 14.5t122.5 43.5v422h219v-854h137v-64q0 -43 2 -66q-53 -23 -107.5 -30.5t-88.5 -7.5q-86 0 -124 49t-38 121v276q-72 -39 -158 -55.5t-160 -16.5q-96 0 -156.5 27t-95 71t-47 102t-12.5 124v174h-145z" />
<glyph unicode="&#x4f8;" horiz-adv-x="1925" d="M39 1653q0 43 31 72.5t72 29.5q47 0 77.5 -28.5t30.5 -73.5q0 -43 -29.5 -72.5t-76.5 -29.5q-45 0 -75 29.5t-30 72.5zM434 1653q0 43 30 72.5t71 29.5q47 0 78.5 -28.5t31.5 -73.5q0 -43 -31.5 -72.5t-78.5 -29.5q-43 0 -72 29.5t-29 72.5zM86 0v154h143v1097h-143v154 h514v-154h-145v-413h311q113 0 202 -31t150.5 -86t94 -133t32.5 -172q0 -106 -33.5 -184t-92 -129.5t-140.5 -77t-176 -25.5h-717zM455 154h303q106 0 180 66.5t74 197.5q0 70 -23.5 120t-61.5 82.5t-88.5 48t-101.5 15.5h-282v-530zM1337 0v154h133v1097h-133v152h496v-152 h-137v-1097h137v-154h-496z" />
<glyph unicode="&#x4f9;" horiz-adv-x="1574" d="M407 1247q0 43 31 72.5t72 29.5q47 0 77.5 -28.5t30.5 -73.5q0 -43 -29.5 -72.5t-76.5 -29.5q-45 0 -75 29.5t-30 72.5zM802 1247q0 43 30 72.5t71 29.5q47 0 78.5 -28.5t31.5 -73.5q0 -43 -31.5 -72.5t-78.5 -29.5q-43 0 -72 29.5t-29 72.5zM45 856v145h361v-391h264 q174 0 265 -85t91 -218q0 -74 -25.5 -131t-70.5 -96t-106.5 -59.5t-133.5 -20.5h-497v856h-148zM406 141h231q82 0 129 43t47 123q0 88 -54 128t-138 40h-215v-334zM1044 854v147h330v-843h148v-131q-45 -20 -101.5 -29.5t-97.5 -9.5q-94 0 -131 49t-37 147v670h-111z" />
<glyph unicode="&#x2000;" horiz-adv-x="987" />
<glyph unicode="&#x2001;" horiz-adv-x="1976" />
<glyph unicode="&#x2002;" horiz-adv-x="987" />
<glyph unicode="&#x2003;" horiz-adv-x="1976" />
<glyph unicode="&#x2004;" horiz-adv-x="657" />
<glyph unicode="&#x2005;" horiz-adv-x="493" />
<glyph unicode="&#x2006;" horiz-adv-x="327" />
<glyph unicode="&#x2007;" horiz-adv-x="327" />
<glyph unicode="&#x2008;" horiz-adv-x="245" />
<glyph unicode="&#x2009;" horiz-adv-x="395" />
<glyph unicode="&#x200a;" horiz-adv-x="108" />
<glyph unicode="&#x2010;" horiz-adv-x="772" d="M115 461v168h542v-168h-542z" />
<glyph unicode="&#x2011;" horiz-adv-x="772" d="M115 461v168h542v-168h-542z" />
<glyph unicode="&#x2012;" horiz-adv-x="772" d="M115 461v168h542v-168h-542z" />
<glyph unicode="&#x2013;" horiz-adv-x="1024" d="M72 453v145h884v-145h-884z" />
<glyph unicode="&#x2014;" horiz-adv-x="2048" d="M84 453v145h1874v-145h-1874z" />
<glyph unicode="&#x2018;" horiz-adv-x="475" d="M104 1126q0 49 18.5 99.5t51.5 97.5t74 85t88 62l53 -71q-45 -39 -70.5 -83t-29.5 -104q84 -23 84 -116q0 -49 -37 -87t-92 -38q-68 0 -104 44.5t-36 110.5z" />
<glyph unicode="&#x2019;" horiz-adv-x="475" d="M109 1044q43 39 68.5 83t31.5 102q-43 10 -64.5 42t-21.5 75q0 51 37 87.5t94 36.5q66 0 101.5 -45t35.5 -108q0 -49 -18.5 -99.5t-50 -97.5t-73.5 -85t-89 -62z" />
<glyph unicode="&#x201a;" horiz-adv-x="475" d="M92 -207q49 49 75 99.5t32 105.5q-55 4 -77 39t-22 78q0 49 37 87t96 38q66 0 103 -45t37 -109q0 -94 -59.5 -193.5t-163.5 -166.5z" />
<glyph unicode="&#x201c;" horiz-adv-x="772" d="M100 1126q0 49 18.5 99.5t50.5 96.5t74 85t89 63l53 -71q-45 -39 -71.5 -83t-30.5 -104q86 -23 86 -116q0 -49 -37 -87t-94 -38q-66 0 -102 44.5t-36 110.5zM412 1126q0 49 18.5 99.5t50 97.5t72.5 85t88 62q14 -18 26.5 -35.5t28.5 -35.5q-45 -39 -71.5 -83t-30.5 -104 q86 -23 86 -116q0 -49 -38 -87t-93 -38q-68 0 -102.5 44.5t-34.5 110.5z" />
<glyph unicode="&#x201d;" horiz-adv-x="772" d="M102 1044q47 39 73 83t32 102q-43 10 -64.5 42t-21.5 75q0 51 36 87.5t95 36.5q66 0 101.5 -45t35.5 -108q0 -49 -18.5 -99.5t-50 -97.5t-73.5 -85t-89 -62zM416 1044q43 39 69.5 83t30.5 102q-41 10 -63.5 42t-22.5 75q0 51 38 87.5t95 36.5q66 0 101.5 -45t35.5 -108 q0 -49 -18 -99.5t-49 -97.5t-73 -85t-91 -62z" />
<glyph unicode="&#x201e;" horiz-adv-x="804" d="M92 -207q49 49 75 99.5t32 105.5q-55 4 -77 39t-22 78q0 49 37 87t96 38q66 0 103 -45t37 -109q0 -94 -59.5 -193.5t-163.5 -166.5zM430 -207q96 98 105 205q-53 4 -75 39t-22 78q0 49 36 87t95 38q68 0 105 -45t37 -109q0 -94 -59.5 -193.5t-166.5 -166.5z" />
<glyph unicode="&#x2022;" horiz-adv-x="718" d="M121 559q0 49 19.5 93t51 76t74.5 51.5t92 19.5t92.5 -19.5t75 -51.5t51 -76t19.5 -93t-19.5 -93t-51 -76t-74.5 -51.5t-93 -19.5q-49 0 -92 19.5t-74.5 51.5t-51 76t-19.5 93z" />
<glyph unicode="&#x2026;" horiz-adv-x="1411" d="M98 111q0 53 38 90t93 37q53 0 90 -37t37 -90t-37.5 -92t-89.5 -39q-53 0 -92 39t-39 92zM567 111q0 53 37 90t90 37t91 -37t38 -90t-36.5 -92t-90.5 -39q-53 0 -91 39t-38 92zM1055 111q0 53 37.5 90t91.5 37q53 0 90 -37t37 -90t-37 -92t-88 -39q-53 0 -92 39t-39 92z " />
<glyph unicode="&#x202f;" horiz-adv-x="395" />
<glyph unicode="&#x2039;" horiz-adv-x="671" d="M121 354v78l315 344l90 -65l-209 -318l209 -315l-90 -66z" />
<glyph unicode="&#x203a;" horiz-adv-x="671" d="M121 711l90 65l315 -344v-78l-315 -342l-88 66l207 315z" />
<glyph unicode="&#x205f;" horiz-adv-x="493" />
<glyph unicode="&#x20ac;" d="M63 545v92h863v-92h-547q8 -84 32.5 -156t70.5 -124t116 -80.5t170 -28.5q35 0 85 5t103 17v156h156v-295q-35 -12 -81 -22.5t-96 -17.5t-101.5 -11t-96.5 -4q-145 0 -250.5 41t-175 115.5t-105.5 178t-44 226.5h-99zM63 731v94h101q10 100 47 199.5t106.5 178.5t176 128 t258.5 49q104 0 188 -15t147 -38v-289h-155v150q-37 10 -82 17t-94 7q-172 0 -262.5 -104t-112.5 -283h545v-94h-863z" />
<glyph unicode="&#x2122;" horiz-adv-x="1638" d="M63 1196v207h596v-207h-98v111h-133v-496h88v-92h-313v92h86v496h-127v-111h-99zM709 717v94h75v496h-75v96h235l86 -184l111 -240h2q29 59 56.5 119.5t55.5 120.5q23 47 44.5 92t41.5 92h236v-96h-72v-496h72v-94h-272v94h67v383h-4l-111 -229l-61 -129h-109l-63 133 l-109 217h-2v-375h74v-94h-278z" />
<glyph unicode="&#xe000;" horiz-adv-x="1000" d="M0 1000h1000v-1000h-1000v1000z" />
</font>
</defs>
</svg>
