<?xml version="1.0" standalone="no"?>
<!DOCTYPE svg PUBLIC "-//W3C//DTD SVG 1.1//EN" "http://www.w3.org/Graphics/SVG/1.1/DTD/svg11.dtd" >
<svg xmlns="http://www.w3.org/2000/svg">
<metadata>
This is a custom SVG webfont generated by Font Squirrel.
Copyright   : Copyright 2011 Canonical Ltd  Licensed under the Ubuntu Font Licence 10
Designer    : Dalton Maag Ltd
Foundry     : Dalton Maag Ltd
Foundry URL : httpwwwdaltonmaagcom
</metadata>
<defs>
<font id="UbuntuBold" horiz-adv-x="1163" >
<font-face units-per-em="2048" ascent="1638" descent="-410" />
<missing-glyph horiz-adv-x="491" />
<glyph unicode=" "  horiz-adv-x="491" />
<glyph unicode="&#x09;" horiz-adv-x="491" />
<glyph unicode="&#xa0;" horiz-adv-x="491" />
<glyph unicode="!" horiz-adv-x="585" d="M102 162q0 90 58.5 139t132.5 49t132 -49t58 -139t-58 -139.5t-132 -49.5t-132.5 49.5t-58.5 139.5zM131 1053v366h326v-366q0 -166 -12.5 -309.5t-32.5 -290.5h-234q-20 147 -33.5 290.5t-13.5 309.5z" />
<glyph unicode="&#x22;" horiz-adv-x="952" d="M102 1407v149h301v-151q0 -98 -15 -215t-34 -236h-202q-23 119 -36.5 236t-13.5 217zM548 1407v149h301v-151q0 -98 -15 -215t-34 -236h-202q-23 119 -36.5 236t-13.5 217z" />
<glyph unicode="#" horiz-adv-x="1431" d="M113 348v236h192l49 252h-241v235h286l68 348h266l-67 -348h237l68 348h266l-68 -348h150v-235h-195l-49 -252h244v-236h-289l-65 -348h-267l66 348h-238l-65 -348h-266l65 348h-147zM571 584h238l49 252h-237z" />
<glyph unicode="$" d="M72 123l88 235q72 -35 171 -63.5t210 -28.5q125 0 171 34t46 95q0 39 -18.5 66.5t-53.5 50.5t-88 44.5t-123 45.5q-68 25 -132 54.5t-116.5 72.5t-84 105.5t-31.5 150.5q0 68 19.5 130.5t60 113.5t106 87t156.5 52v221h258v-213q106 -10 183 -30.5t122 -40.5l-64 -246 q-68 29 -156.5 49t-187.5 20q-98 0 -141 -32.5t-43 -85.5q0 -33 13.5 -56.5t42 -42t70.5 -36t101 -37.5q90 -33 167 -72t133.5 -89t88 -117.5t31.5 -158.5q0 -61 -18.5 -121.5t-61.5 -111.5t-111.5 -88t-168.5 -53v-250h-258v243q-150 12 -243 46t-138 57z" />
<glyph unicode="%" horiz-adv-x="1880" d="M72 1055q0 193 98 295t264 102t264.5 -102.5t98.5 -294.5q0 -193 -98.5 -295.5t-264.5 -102.5t-264 102.5t-98 295.5zM303 1055q0 -104 36 -152.5t95 -48.5q57 0 94 48t37 153q0 104 -36.5 151t-94.5 47q-59 0 -95 -47t-36 -151zM395 0l801 1419h285l-801 -1419h-285z M1083 365q0 193 98.5 295t264.5 102t264 -102.5t98 -294.5q0 -193 -98 -295.5t-264 -102.5t-264.5 102.5t-98.5 295.5zM1315 365q0 -104 35.5 -152.5t95.5 -48.5q57 0 94 48t37 153q0 104 -37 151t-94 47q-59 0 -95 -47t-36 -151z" />
<glyph unicode="&#x26;" horiz-adv-x="1443" d="M72 377q0 78 22.5 142.5t60.5 116.5t88 92t105 71q-49 59 -88 127.5t-39 150.5q0 180 108.5 277.5t299.5 97.5q96 0 167.5 -25.5t120 -69.5t73 -102.5t24.5 -126.5q0 -125 -71 -222t-179 -163l229 -229q18 41 36 103.5t22 109.5l254 -33q-4 -39 -14.5 -85t-26 -93 t-35 -94t-41.5 -86q66 -74 128 -161t107 -175h-313q-16 27 -45 66.5t-57 68.5q-82 -66 -190.5 -109.5t-244.5 -43.5q-143 0 -239 35.5t-154.5 92t-83 127t-24.5 140.5zM356 408q0 -31 12.5 -64t40 -60.5t70.5 -45t105 -17.5q86 0 150.5 22.5t107.5 59.5l-328 330 q-29 -14 -56.5 -34.5t-50 -48.5t-37 -62.5t-14.5 -79.5zM483 1092q0 -53 31 -103.5t80 -95.5q66 37 113 88t47 133q0 47 -31 84t-102 37q-66 0 -102 -40t-36 -103z" />
<glyph unicode="'" horiz-adv-x="505" d="M102 1407v149h301v-151q0 -98 -15 -215t-34 -236h-202q-23 119 -36.5 236t-13.5 217z" />
<glyph unicode="(" horiz-adv-x="729" d="M143 612q0 285 94.5 537t268.5 455l213 -138q-123 -174 -199 -393t-76 -461t76 -461t199 -393l-213 -137q-174 203 -268.5 454.5t-94.5 536.5z" />
<glyph unicode=")" horiz-adv-x="729" d="M10 -242q123 174 199 393.5t76 460.5q0 242 -76 461t-199 393l213 138q174 -203 268.5 -455t94.5 -537t-94.5 -536.5t-268.5 -454.5z" />
<glyph unicode="*" horiz-adv-x="1028" d="M82 1008l82 254l49 -17q25 -8 57.5 -25.5t64.5 -39t61.5 -43t52.5 -39.5q-10 27 -21.5 62.5t-22 72.5t-17.5 72.5t-7 62.5v51h266v-51q0 -27 -7 -62.5t-17.5 -72.5t-21.5 -73t-21 -62q20 18 51 39.5t62.5 43t64.5 39t57 25.5l49 17l82 -254l-49 -17q-27 -8 -61.5 -12 t-73.5 -5t-76 -1h-65q25 -16 54.5 -38t59 -45.5t56 -48t43.5 -46.5l32 -43l-217 -154l-31 41q-16 20 -31.5 53t-29.5 69t-24.5 70.5t-18.5 63.5q-8 -29 -18.5 -63.5t-24.5 -70.5t-29.5 -69t-31.5 -53l-31 -41l-217 154l33 43q16 23 42.5 47t56.5 47.5t59.5 45t54.5 38.5h-66 q-37 0 -76 1t-73.5 5t-61.5 12z" />
<glyph unicode="+" d="M100 483v256h342v379h279v-379h342v-256h-342v-379h-279v379h-342z" />
<glyph unicode="," horiz-adv-x="503" d="M35 -274q47 135 65.5 253.5t18.5 196.5q0 12 -1 31.5t-2 40t-2 39t-1 24.5h319q4 -49 5 -69.5t1 -34.5q0 -61 -11 -130t-31.5 -138.5t-51.5 -139t-70 -133.5z" />
<glyph unicode="-" horiz-adv-x="696" d="M51 473v277h594v-277h-594z" />
<glyph unicode="." horiz-adv-x="503" d="M61 162q0 92 58.5 140t132.5 48t132 -48t58 -140t-58 -140.5t-132 -48.5t-132.5 48.5t-58.5 140.5z" />
<glyph unicode="/" horiz-adv-x="894" d="M-51 -379l688 1983h309l-684 -1983h-313z" />
<glyph unicode="0" d="M70 713q0 178 35.5 315t103 231.5t162 143.5t211.5 49q240 0 376 -191.5t136 -547.5q0 -358 -136.5 -550t-375.5 -192q-240 0 -376 192t-136 550zM381 713q0 -106 10 -194.5t34 -152t61.5 -98.5t95.5 -35q57 0 96 35t61.5 98.5t32.5 151.5t10 195q0 106 -10 193 t-32.5 150.5t-61.5 98.5t-96 35t-95 -35t-62 -98.5t-34 -150.5t-10 -193z" />
<glyph unicode="1" d="M143 1124q59 25 124 56.5t126.5 69.5t117.5 80t101 89h213v-1419h-305v1022q-61 -41 -137 -75t-147 -58z" />
<glyph unicode="2" d="M72 1260q90 84 209.5 138t257.5 54q125 0 215 -28.5t148.5 -81t86 -127t27.5 -168.5q0 -78 -31 -150t-80 -138.5t-110.5 -128t-120.5 -116.5q-31 -29 -67 -64.5t-68.5 -72.5t-58 -69t-31.5 -52h610v-256h-946q-4 23 -4 57v49q0 98 31.5 180.5t82.5 153t115.5 132 t128.5 122.5q49 47 92 89t76 82t51.5 80t18.5 81q0 90 -51.5 127t-127.5 37q-55 0 -103 -17.5t-88 -41t-68.5 -47t-43.5 -37.5z" />
<glyph unicode="3" d="M53 49l60 254q53 -23 136 -48.5t206 -25.5q141 0 206.5 53.5t65.5 143.5q0 55 -23.5 93t-64.5 61.5t-97.5 33t-119.5 9.5h-119v245h135q45 0 87 8.5t75 28t52.5 53t19.5 84.5q0 39 -16.5 68t-42 47.5t-59.5 27.5t-69 9q-88 0 -162.5 -26.5t-136.5 -65.5l-108 223 q33 20 77 43t97 41t113.5 30.5t128.5 12.5q125 0 216 -29.5t150.5 -84t88 -127t28.5 -158.5q0 -84 -47 -163t-127 -120q111 -45 171 -134t60 -214q0 -98 -32.5 -181t-102.5 -143.5t-177.5 -94.5t-254.5 -34q-55 0 -116.5 7.5t-119 19.5t-104.5 26.5t-74 26.5z" />
<glyph unicode="4" d="M41 317v224q45 90 112.5 203.5t150.5 233.5t175 234.5t185 206.5h288v-852h152v-250h-152v-317h-299v317h-612zM332 567h321v480q-80 -104 -170 -227.5t-151 -252.5z" />
<glyph unicode="5" d="M78 43l55 252q51 -23 135 -44.5t201 -21.5q141 0 204.5 56.5t63.5 132.5q0 59 -26.5 105t-92 77t-176 47.5t-278.5 16.5q23 190 37 386.5t22 368.5h768v-256h-512q-4 -74 -9 -142.5t-11 -119.5q299 -20 441 -140t142 -333q0 -98 -34.5 -182t-104 -145.5t-175 -96.5 t-247.5 -35q-55 0 -115.5 7.5t-116.5 18.5t-101 23.5t-70 24.5z" />
<glyph unicode="6" d="M76 580q0 205 63.5 362.5t181 265t284.5 163.5t376 59q4 -63 8 -124t8 -126q-104 -2 -195 -19.5t-166 -54.5t-130 -95.5t-86 -142.5q45 20 92 28.5t88 8.5q133 0 226.5 -35.5t152.5 -97t86 -143.5t27 -174q0 -82 -30 -168t-90.5 -156t-153.5 -115t-220 -45 q-256 0 -389 162t-133 447zM383 584q0 -74 10 -139.5t35 -114.5t66 -77t102 -28q51 0 87 21.5t59.5 54.5t34.5 73t11 77q0 104 -52 160.5t-175 56.5q-45 0 -96 -8.5t-80 -22.5q0 -8 -1 -24.5t-1 -28.5z" />
<glyph unicode="7" d="M88 1161v260h993v-221q-66 -72 -144.5 -199t-149 -287.5t-123 -345t-64.5 -368.5h-309q12 150 51 311.5t95.5 317t126 294t141.5 238.5h-617z" />
<glyph unicode="8" d="M80 371q0 61 16.5 112.5t45 93t64.5 76.5t77 66q-88 72 -130 141.5t-42 177.5q0 82 33.5 158t95 132t148.5 90t194 34q125 0 214 -36t146 -91t83 -123.5t26 -136.5q0 -98 -52.5 -183t-130.5 -134q117 -76 167 -159t50 -194q0 -92 -31.5 -168.5t-95 -134t-158.5 -89.5 t-220 -32q-143 0 -238.5 40t-154 99.5t-83 130.5t-24.5 130zM377 383q0 -25 11 -54.5t36 -54t63.5 -41t94.5 -16.5q106 0 155 51t49 115q0 47 -21.5 84t-58 64.5t-87 49t-107.5 40.5q-57 -43 -96 -100.5t-39 -137.5zM408 1053q0 -66 48 -123.5t165 -98.5q66 41 100.5 94.5 t34.5 131.5q0 23 -9.5 48t-31 48t-54 38t-79.5 15q-45 0 -78 -14t-54.5 -38t-31.5 -50t-10 -51z" />
<glyph unicode="9" d="M57 967q0 82 28 168t87 156.5t150.5 116.5t220.5 46q264 0 398 -163t134 -468q0 -201 -52 -354.5t-161.5 -258t-279.5 -158.5t-404 -56q-2 66 -6 127t-8 127q117 2 211 17.5t165.5 51t122 95t78.5 149.5q-43 -20 -95 -29.5t-89 -9.5q-133 0 -227 32t-154.5 90.5 t-89.5 140.5t-29 180zM360 979q0 -111 54.5 -164t177.5 -53q47 0 98 9t76 26v18q0 8 1 16.5t1 14.5q-2 74 -12.5 138.5t-35 112.5t-66.5 75.5t-103 27.5q-49 0 -86 -20.5t-59.5 -53t-34 -71.5t-11.5 -76z" />
<glyph unicode=":" horiz-adv-x="503" d="M61 889q0 92 58.5 140t132.5 48t132 -48t58 -140t-58 -140.5t-132 -48.5t-132.5 48.5t-58.5 140.5zM61 162q0 92 58.5 140t132.5 48t132 -48t58 -140t-58 -140.5t-132 -48.5t-132.5 48.5t-58.5 140.5z" />
<glyph unicode=";" horiz-adv-x="503" d="M61 889q0 92 58.5 140t132.5 48t132 -48t58 -140t-58 -140.5t-132 -48.5t-132.5 48.5t-58.5 140.5zM35 -274q47 135 65.5 253.5t18.5 196.5q0 12 -1 31.5t-2 40t-2 39t-1 24.5h319q4 -49 5 -69.5t1 -34.5q0 -61 -11 -130t-31.5 -138.5t-51.5 -139t-70 -133.5z" />
<glyph unicode="&#x3c;" d="M102 485v254l881 371l80 -248l-643 -250l643 -250l-80 -247z" />
<glyph unicode="=" d="M100 258v256h963v-256h-963zM100 707v256h963v-256h-963z" />
<glyph unicode="&#x3e;" d="M100 362l643 250l-643 250l80 248l881 -371v-254l-881 -370z" />
<glyph unicode="?" horiz-adv-x="931" d="M41 1346q80 51 188.5 78.5t212.5 27.5q131 0 216 -35t134.5 -88t69 -116.5t19.5 -120.5t-17.5 -105.5t-44 -89.5t-61.5 -78t-68 -69q-25 -25 -51.5 -52.5t-48 -58.5t-35.5 -64.5t-14 -68.5v-25q0 -16 2 -28h-271q-4 20 -5 45.5t-1 44.5q0 57 14.5 103t38 86t54 75 t63.5 67q47 47 86 93.5t39 105.5q0 49 -38 84t-111 35q-74 0 -139.5 -18.5t-145.5 -59.5zM221 162q0 90 58.5 139t132.5 49t132 -49t58 -139t-58.5 -139.5t-131.5 -49.5q-74 0 -132.5 49.5t-58.5 139.5z" />
<glyph unicode="@" horiz-adv-x="1994" d="M102 557q0 227 78 398t205 286t290 172t335 57q188 0 350 -52t279.5 -152.5t185 -249t67.5 -340.5q0 -150 -31.5 -265.5t-92 -193.5t-144.5 -119t-188 -41q-59 0 -119 14.5t-98 51.5q-90 -63 -228 -64q-102 0 -187 32t-145.5 95.5t-94.5 156.5t-34 216q0 104 34 194.5 t99.5 157t161 105.5t215.5 39q121 0 214.5 -21.5t154.5 -44.5v-643q0 -47 19.5 -63.5t56.5 -16.5q33 0 64.5 18.5t54 66.5t37 131t14.5 210t-44 232.5t-127 180.5t-203 117t-271 42q-145 0 -267 -49.5t-211.5 -140.5t-139.5 -222t-50 -295q0 -170 49 -298t140.5 -214 t221.5 -130t294 -44q102 0 193 13.5t153 25.5l30 -193q-51 -16 -155.5 -34.5t-220.5 -18.5q-197 0 -369 51.5t-300 160t-202 277t-74 404.5zM807 559q0 -59 10 -109.5t36 -87t69 -58t106 -21.5q37 0 69.5 5t49.5 13q-4 16 -6 48t-2 61v417q-41 8 -86 9q-68 0 -115 -21.5 t-75.5 -58.5t-42 -87.5t-13.5 -109.5z" />
<glyph unicode="A" horiz-adv-x="1476" d="M20 0q80 229 152 423.5t140.5 367t135 327t138.5 301.5h305q70 -147 137.5 -301.5t136 -327t140 -367t151.5 -423.5h-342q-23 74 -50.5 151.5t-53.5 155.5h-553q-27 -78 -54.5 -155.5t-50.5 -151.5h-332zM530 561h404q-33 92 -63.5 176t-58.5 154t-48.5 123t-32.5 84 q-10 -31 -30.5 -84t-47 -123t-58.5 -154t-65 -176z" />
<glyph unicode="B" horiz-adv-x="1376" d="M164 23v1376q98 18 215 27.5t217 9.5q135 0 248.5 -19.5t195.5 -66.5t128 -124t46 -190q0 -170 -163 -268q135 -51 184 -139t49 -199q0 -223 -163 -335.5t-484 -112.5q-117 0 -232.5 7t-240.5 34zM475 252q35 -4 76 -6t90 -2q143 0 231.5 41t88.5 151q0 98 -74 140 t-211 42h-201v-366zM475 862h156q147 0 210.5 38t63.5 122q0 86 -65.5 121t-192.5 35q-41 0 -88 -1t-84 -6v-309z" />
<glyph unicode="C" horiz-adv-x="1327" d="M102 711q0 176 55.5 314t152 233.5t229.5 144.5t288 49q90 0 164 -13.5t129.5 -30.5t92 -35.5t53.5 -29.5l-92 -258q-66 35 -153 59.5t-198 24.5q-74 0 -144.5 -24.5t-124.5 -78.5t-87 -140t-33 -209q0 -98 21.5 -183t69.5 -146.5t126 -97.5t189 -36q70 0 125 8t98 19.5 t75.5 26t59.5 26.5l88 -256q-68 -41 -190.5 -74t-284.5 -33q-346 0 -527.5 193t-181.5 547z" />
<glyph unicode="D" horiz-adv-x="1509" d="M164 18v1383q111 20 230.5 27.5t205.5 7.5q182 0 330.5 -41t255 -129t164 -225.5t57.5 -329.5q0 -184 -57.5 -321.5t-163 -227.5t-257 -135t-339.5 -45q-86 0 -200.5 6.5t-225.5 29.5zM483 260q23 -2 52.5 -3t70.5 -1q240 0 355.5 121t115.5 334q0 223 -110.5 337.5 t-350.5 114.5q-33 0 -67.5 -1t-65.5 -5v-897z" />
<glyph unicode="E" horiz-adv-x="1241" d="M164 0v1419h958v-268h-639v-279h568v-262h-568v-342h686v-268h-1005z" />
<glyph unicode="F" horiz-adv-x="1175" d="M164 0v1419h950v-268h-631v-297h561v-268h-561v-586h-319z" />
<glyph unicode="G" horiz-adv-x="1437" d="M102 711q0 178 55.5 315t152 232.5t226.5 144.5t277 49q100 0 181 -13.5t139.5 -30.5t96.5 -35.5t54 -29.5l-92 -256q-66 35 -151 61t-185 26q-223 0 -322.5 -124t-99.5 -339q0 -104 24.5 -189.5t74 -147t123 -95t171.5 -33.5q53 0 91 2t67 8v494h320v-703 q-57 -23 -184.5 -48.5t-313.5 -25.5q-160 0 -290 49.5t-222 143.5t-142.5 231.5t-50.5 313.5z" />
<glyph unicode="H" horiz-adv-x="1503" d="M164 0v1419h319v-542h537v542h319v-1419h-319v602h-537v-602h-319z" />
<glyph unicode="I" horiz-adv-x="647" d="M164 0v1419h319v-1419h-319z" />
<glyph unicode="J" horiz-adv-x="1083" d="M20 84l107 248q59 -35 127 -61.5t147 -26.5q117 0 168.5 57t51.5 193v925h319v-942q0 -104 -23.5 -196.5t-82 -161t-157.5 -108.5t-251 -40q-139 0 -239.5 34t-166.5 79z" />
<glyph unicode="K" horiz-adv-x="1400" d="M164 0v1419h319v-536q125 131 251 273t235 263h379q-145 -172 -292 -331.5t-308 -321.5q170 -141 328.5 -335.5t303.5 -430.5h-379q-43 70 -101 150.5t-126.5 161.5t-142.5 156t-148 132v-600h-319z" />
<glyph unicode="L" horiz-adv-x="1153" d="M164 0v1419h319v-1145h629v-274h-948z" />
<glyph unicode="M" horiz-adv-x="1837" d="M123 0q8 168 19.5 358.5t24.5 380t30.5 364.5t38.5 316h305q37 -68 85 -167t100 -214.5t103.5 -236.5t96.5 -228q45 106 96 227.5t103.5 237t100.5 215t85 166.5h291q20 -141 37.5 -316t30.5 -364.5t24.5 -380t19.5 -358.5h-311q-6 207 -16.5 450.5t-30.5 491.5 q-37 -86 -82 -190.5t-89 -209t-85 -199.5t-70 -163h-223q-29 68 -70 163t-85 199.5t-89 209t-82 190.5q-20 -248 -30.5 -491.5t-16.5 -450.5h-311z" />
<glyph unicode="N" horiz-adv-x="1548" d="M164 0v1419h260q68 -68 149.5 -166t166.5 -209.5t169 -231.5t158 -230v837h317v-1419h-268q-137 244 -297 481.5t-340 448.5v-930h-315z" />
<glyph unicode="O" horiz-adv-x="1617" d="M102 711q0 182 57.5 320t155 232.5t225.5 141.5t269 47q145 0 274 -47t225.5 -141.5t152 -232.5t55.5 -320t-54.5 -320.5t-148.5 -231.5t-224.5 -140.5t-279.5 -47.5q-145 0 -274 47.5t-225.5 140.5t-152 231.5t-55.5 320.5zM432 711q0 -104 25.5 -188.5t74 -145t118 -93 t159.5 -32.5q88 0 158.5 32.5t119 93t74 144.5t25.5 189q0 104 -25.5 189t-74 145.5t-119 93t-158.5 32.5q-90 0 -159.5 -33.5t-118 -94t-74 -145.5t-25.5 -187z" />
<glyph unicode="P" horiz-adv-x="1318" d="M164 0v1399q104 20 221 28.5t205 8.5q317 0 487 -112t170 -366q0 -256 -172 -369.5t-491 -113.5h-101v-475h-319zM483 748h101q166 0 250 45t84 168q0 59 -22 98t-61.5 62.5t-97 32.5t-127.5 9q-35 0 -68.5 -2t-58.5 -4v-409z" />
<glyph unicode="Q" horiz-adv-x="1617" d="M102 711q0 182 57.5 320t155 232.5t225.5 141.5t269 47q145 0 274 -47t225.5 -141.5t152 -232.5t55.5 -320q0 -150 -37 -269.5t-103.5 -210t-159 -149.5t-202.5 -86q10 -41 45 -66.5t88 -42t123.5 -24.5t152.5 -15l-65 -233q-160 6 -273.5 31.5t-192.5 70.5t-125 111 t-71 152q-127 16 -235.5 70t-188 146.5t-125 221.5t-45.5 293zM432 711q0 -104 25.5 -188.5t74 -145t118 -93t159.5 -32.5q88 0 158.5 32.5t119 93t74 144.5t25.5 189q0 104 -25.5 189t-74 145.5t-119 93t-158.5 32.5q-90 0 -159.5 -33.5t-118 -94t-74 -145.5t-25.5 -187z " />
<glyph unicode="R" horiz-adv-x="1366" d="M164 0v1399q104 20 216 28.5t200 8.5q319 0 489 -114t170 -353q0 -150 -68.5 -243t-197.5 -146q43 -53 90 -122t93 -143.5t89 -155.5t80 -159h-358q-39 70 -79 141.5t-82 139t-83 128t-82 109.5h-158v-518h-319zM483 772h90q180 0 258 45t78 154q0 104 -78.5 148 t-232.5 44q-35 0 -62.5 -2t-52.5 -4v-385z" />
<glyph unicode="S" horiz-adv-x="1191" d="M76 80l90 254q63 -35 156.5 -62.5t228.5 -27.5q68 0 112 11t70.5 30.5t36.5 46t10 59.5q0 70 -65.5 116t-225.5 99q-70 25 -139 56.5t-124.5 80t-90.5 117t-35 166.5t37 177t104.5 134.5t164 85t217.5 29.5q143 0 247.5 -30.5t171.5 -67.5l-92 -252q-59 31 -132 54.5 t-175 23.5q-115 0 -165 -32t-50 -97q0 -39 18.5 -66t52 -48.5t78 -38.5t97.5 -36q111 -41 192.5 -81t136 -93t81 -124.5t26.5 -174.5q0 -199 -139.5 -308.5t-419.5 -109.5q-94 0 -170 11.5t-134.5 28t-100 35t-70.5 34.5z" />
<glyph unicode="T" horiz-adv-x="1257" d="M41 1147v272h1176v-272h-429v-1147h-319v1147h-428z" />
<glyph unicode="U" horiz-adv-x="1447" d="M143 537v882h320v-856q0 -86 19.5 -146.5t53 -98t82 -54t105.5 -16.5q117 0 189.5 71.5t72.5 243.5v856h320v-882q0 -125 -35 -229.5t-106.5 -179.5t-182.5 -116t-262 -41q-150 0 -258.5 42t-179 117t-104.5 178.5t-34 228.5z" />
<glyph unicode="V" horiz-adv-x="1478" d="M20 1419h353q41 -123 89 -265t98 -283.5t97.5 -270.5t87.5 -223q39 94 87.5 223t98.5 270.5t98 283.5t89 265h340q-47 -135 -108.5 -307t-135 -360.5t-155.5 -381t-166 -370.5h-307q-84 178 -166 370.5t-156 381t-136.5 360.5t-107.5 307z" />
<glyph unicode="W" horiz-adv-x="1941" d="M41 1419h346q20 -121 45 -251t51.5 -261t54 -254t56.5 -227q37 100 71.5 213t67.5 225.5t60.5 217t50.5 186.5h272q25 -84 54.5 -189.5t63.5 -218t68.5 -225.5t67.5 -209q27 104 54.5 227t52 254t48 261t44.5 251h332q-72 -356 -165.5 -722.5t-201.5 -696.5h-293 q-72 197 -139.5 413t-132.5 433q-66 -217 -131.5 -433t-137.5 -413h-292q-109 330 -202 696.5t-165 722.5z" />
<glyph unicode="X" horiz-adv-x="1382" d="M20 0q90 166 210 348t268 387l-457 684h387l277 -442l270 442h364l-450 -688q172 -223 288.5 -412.5t184.5 -318.5h-383q-59 119 -130 240.5t-163 248.5q-29 -37 -73 -102t-88 -139t-83 -141.5t-57 -106.5h-365z" />
<glyph unicode="Y" horiz-adv-x="1353" d="M10 1419h371q66 -147 141.5 -292.5t161.5 -290.5q86 145 164 290.5t143 292.5h352q-117 -229 -241.5 -444t-263.5 -432v-543h-320v539q-139 217 -265 434t-243 446z" />
<glyph unicode="Z" horiz-adv-x="1249" d="M72 0v190q57 104 140 232.5t173 258.5t183.5 252t172.5 218h-637v268h1061v-221q-66 -68 -155.5 -175.5t-186 -234t-190.5 -262t-168 -258.5h723v-268h-1116z" />
<glyph unicode="[" horiz-adv-x="759" d="M184 -379v1983h555v-244h-264v-1495h264v-244h-555z" />
<glyph unicode="\" horiz-adv-x="894" d="M-51 1604h309l688 -1983h-313z" />
<glyph unicode="]" horiz-adv-x="759" d="M20 -135h265v1495h-265v244h555v-1983h-555v244z" />
<glyph unicode="^" d="M37 717l424 710h241l424 -710l-256 -125l-288 502l-289 -502z" />
<glyph unicode="_" horiz-adv-x="1024" d="M0 -125h1024v-254h-1024v254z" />
<glyph unicode="`" horiz-adv-x="585" d="M41 1464l186 172l291 -331l-139 -125z" />
<glyph unicode="a" horiz-adv-x="1132" d="M72 332q0 94 37.5 159.5t101 104.5t145.5 56.5t170 17.5q59 0 105.5 -5.5t75.5 -13.5v29q0 78 -47.5 125t-163.5 47q-78 0 -154 -11.5t-131 -31.5l-39 246q27 8 67 17t87 16.5t99 12.5t105 5q135 0 225.5 -31t144.5 -88t76.5 -139t22.5 -182v-635q-66 -14 -182.5 -34 t-281.5 -20q-104 0 -189.5 18.5t-147 60.5t-94 110t-32.5 166zM375 340q0 -72 48 -99.5t132 -27.5q45 0 86 2t66 6v232q-18 4 -55.5 8t-67.5 4q-43 0 -81 -5t-66.5 -19.5t-45 -39t-16.5 -61.5z" />
<glyph unicode="b" horiz-adv-x="1236" d="M143 35v1505l306 49v-536q51 23 106 35t119 12q115 0 203 -40t147 -114t90 -177t31 -230q0 -129 -38 -233.5t-109.5 -178.5t-176 -114t-237.5 -40q-55 0 -115.5 5.5t-119 13.5t-112 19.5t-94.5 23.5zM449 244q23 -4 57.5 -7.5t75.5 -3.5q125 0 188.5 86.5t63.5 227.5 q0 295 -218 295q-47 0 -93 -12.5t-74 -30.5v-555z" />
<glyph unicode="c" horiz-adv-x="1024" d="M92 539q0 117 38 220t109.5 180t174 122t233.5 45q86 0 158 -15.5t139 -43.5l-63 -244q-43 16 -94.5 28.5t-114.5 12.5q-135 0 -202 -84t-67 -221q0 -145 62.5 -225.5t218.5 -80.5q55 0 118.5 10.5t117.5 32.5l43 -249q-53 -23 -133 -39.5t-177 -16.5q-147 0 -253.5 44 t-175 120t-100.5 179.5t-32 224.5z" />
<glyph unicode="d" horiz-adv-x="1236" d="M92 532q0 131 33 236.5t94.5 179.5t150.5 113t203 39q63 0 113.5 -12.5t101.5 -34.5v487l306 49v-1554q-41 -12 -94.5 -23.5t-112 -19.5t-118.5 -13.5t-116 -5.5q-133 0 -237.5 39t-176 112t-109.5 176t-38 232zM403 547q0 -141 63.5 -227.5t188.5 -86.5q41 0 76 3.5 t57 7.5v555q-29 18 -74.5 30.5t-92.5 12.5q-218 0 -218 -295z" />
<glyph unicode="e" horiz-adv-x="1196" d="M92 530q0 143 44 251t116 179.5t165 108.5t191 37q229 0 362.5 -140.5t133.5 -412.5q0 -27 -2 -58.5t-4 -56.5h-692q10 -94 87.5 -149.5t208.5 -55.5q84 0 165 15.5t132 38.5l41 -248q-25 -12 -65.5 -24.5t-90.5 -21.5t-107.5 -15.5t-114.5 -6.5q-145 0 -253 43 t-178.5 118t-104.5 177t-34 221zM406 647h403q-2 39 -13.5 76t-35 65.5t-59 47t-89.5 18.5q-51 0 -88 -17.5t-61.5 -46t-37.5 -66.5t-19 -77z" />
<glyph unicode="f" horiz-adv-x="864" d="M143 0v1135q0 209 118 331.5t349 122.5q86 0 158 -17.5t111 -33.5l-60 -244q-41 18 -89 27.5t-89 9.5q-55 0 -93 -15.5t-59.5 -42t-30.5 -63t-9 -80.5v-53h376v-254h-376v-823h-306z" />
<glyph unicode="g" horiz-adv-x="1216" d="M92 573q0 119 37 216.5t107.5 167t173 107.5t231.5 38q55 0 113.5 -5t116 -13.5t109.5 -19.5t93 -24v-905q0 -264 -134 -392t-415 -128q-98 0 -196.5 17.5t-182.5 45.5l54 256q72 -29 150.5 -45t178.5 -16q131 0 185.5 57.5t54.5 147.5v39q-49 -23 -101.5 -34t-113.5 -11 q-223 0 -342 131.5t-119 369.5zM403 573q0 -256 207 -256q47 0 88 12.5t70 28.5v488q-23 4 -53.5 7t-71.5 3q-121 0 -180.5 -80t-59.5 -203z" />
<glyph unicode="h" horiz-adv-x="1206" d="M143 0v1540l306 49v-516q31 10 78.5 19.5t93.5 9.5q131 0 218 -36t139 -101.5t73.5 -155.5t21.5 -201v-608h-305v571q0 147 -38 209t-140 62q-41 0 -77 -7.5t-64 -15.5v-819h-306z" />
<glyph unicode="i" horiz-adv-x="591" d="M113 1389q0 84 54 132t128 48t128 -48t54 -132t-54 -132.5t-128 -48.5t-128 48.5t-54 132.5zM143 0v1077h306v-1077h-306z" />
<glyph unicode="j" horiz-adv-x="591" d="M-147 -350l41 248q31 -10 56 -14.5t64 -4.5q72 0 100.5 43t28.5 125v1030h306v-1038q0 -213 -104.5 -315.5t-301.5 -102.5q-29 0 -85 6.5t-105 22.5zM113 1389q0 84 54 132t128 48t128 -48t54 -132t-54 -132.5t-128 -48.5t-128 48.5t-54 132.5z" />
<glyph unicode="k" horiz-adv-x="1185" d="M143 0v1540l306 49v-901q45 49 93 102.5t93 105.5t85 99t68 82h363q-109 -125 -212 -238.5t-226 -234.5q61 -55 126.5 -132t127 -159t112.5 -163.5t86 -149.5h-350q-33 53 -75 117.5t-89 129t-99 124t-103 100.5v-471h-306z" />
<glyph unicode="l" horiz-adv-x="647" d="M143 354v1186l306 49v-1173q0 -41 6 -74t23.5 -55.5t50 -36.5t87.5 -19l-43 -251q-133 2 -216 28.5t-131 74.5t-65.5 116.5t-17.5 154.5z" />
<glyph unicode="m" horiz-adv-x="1765" d="M143 0v1040q39 10 91.5 21.5t110.5 21t119.5 14.5t121.5 5q117 0 189.5 -30t119.5 -71q66 47 150.5 74t156.5 27q129 0 212 -36t132 -101.5t67.5 -155.5t18.5 -201v-608h-305v571q0 147 -38 209t-130 62q-25 0 -68.5 -12.5t-72.5 -30.5q14 -47 18 -99.5t4 -111.5v-588 h-305v571q0 147 -38 209t-130 62q-29 0 -59.5 -3t-58.5 -8v-831h-306z" />
<glyph unicode="n" horiz-adv-x="1206" d="M143 0v1040q78 23 201 42.5t258 19.5q137 0 228.5 -36t144.5 -101.5t75.5 -155.5t22.5 -201v-608h-305v571q0 147 -39 209t-145 62q-33 0 -70 -3t-65 -8v-831h-306z" />
<glyph unicode="o" horiz-adv-x="1243" d="M92 541q0 127 40 231.5t110.5 178t168 114.5t212.5 41q117 0 214 -41t166.5 -114.5t108.5 -178t39 -231.5t-37 -232.5t-106.5 -180.5t-167 -116t-217.5 -41q-119 0 -216.5 41t-167 116t-108.5 180.5t-39 232.5zM403 541q0 -141 57.5 -224.5t162.5 -83.5q104 0 160.5 83 t56.5 225q0 141 -56.5 222t-160.5 81t-162 -81t-58 -222z" />
<glyph unicode="p" horiz-adv-x="1236" d="M143 -379v1419q41 12 94.5 23.5t112 20t118.5 13.5t116 5q133 0 237.5 -40t176 -112.5t109.5 -177t38 -233.5q0 -125 -31 -227.5t-90 -176.5t-147.5 -114.5t-202.5 -40.5q-63 0 -118.5 12t-106.5 35v-406h-306zM449 281q29 -18 74.5 -30.5t92.5 -12.5q217 0 218 292 q0 141 -63.5 226.5t-188.5 85.5q-41 0 -76 -3t-57 -8v-550z" />
<glyph unicode="q" horiz-adv-x="1236" d="M92 539q0 125 38 228t109.5 178t176 116t237.5 41q55 0 115.5 -5t119 -13.5t112 -19.5t94.5 -24v-1419h-306v406q-51 -23 -106 -35t-119 -12q-229 0 -350 150.5t-121 408.5zM403 530q0 -293 218 -292q47 0 93 12t74 31v550q-23 4 -57.5 7.5t-75.5 3.5 q-125 0 -188.5 -85.5t-63.5 -226.5z" />
<glyph unicode="r" horiz-adv-x="864" d="M143 0v1020q82 29 194 54.5t249 25.5q25 0 59.5 -3t69.5 -8.5t69.5 -12.5t59.5 -17l-51 -252q-41 10 -96.5 21.5t-118.5 11.5q-29 0 -69 -5.5t-60 -11.5v-823h-306z" />
<glyph unicode="s" horiz-adv-x="993" d="M80 37l51 248q78 -31 160 -48.5t162 -17.5q84 0 118.5 16.5t34.5 63.5q0 37 -45 64.5t-137 62.5q-72 27 -130 55.5t-99 68.5t-63.5 95t-22.5 133q0 152 112.5 240t308.5 88q98 0 188.5 -17.5t143.5 -37.5l-53 -238q-53 18 -115.5 32.5t-140.5 14.5q-143 0 -143 -80 q0 -18 6 -32.5t24.5 -27.5t50 -28.5t80.5 -34.5q100 -37 166 -72.5t104 -77.5t53 -93.5t15 -118.5q0 -160 -119.5 -242t-338.5 -82q-143 0 -238.5 25t-132.5 41z" />
<glyph unicode="t" horiz-adv-x="909" d="M133 440v906l305 49v-318h367v-254h-367v-379q0 -96 34 -153.5t136 -57.5q49 0 101.5 9.5t95.5 25.5l43 -237q-55 -23 -123 -39.5t-166 -16.5q-125 0 -207 34t-131 94.5t-68.5 146.5t-19.5 190z" />
<glyph unicode="u" horiz-adv-x="1206" d="M133 477v600h305v-563q0 -147 39 -212.5t146 -65.5q33 0 69.5 3t65.5 7v831h305v-1040q-78 -23 -201 -42.5t-258 -19.5q-137 0 -228 37t-144.5 103.5t-76 158.5t-22.5 203z" />
<glyph unicode="v" horiz-adv-x="1126" d="M20 1077h324q20 -80 48 -173t57.5 -188t59.5 -185.5t58 -163.5q27 74 57.5 164t60.5 185t57.5 188t48.5 173h315q-96 -324 -203.5 -598t-212.5 -479h-254q-104 205 -212 479t-204 598z" />
<glyph unicode="w" horiz-adv-x="1605" d="M20 1077h322q16 -74 35.5 -161t41 -179t45 -185t48.5 -179q27 90 52.5 184t49 185.5t45 176.5t37.5 158h222q16 -74 36.5 -158.5t43 -176t47 -185.5t51.5 -184q25 86 49 179t45.5 185t41 179.5t36.5 160.5h317q-45 -160 -93 -316.5t-94 -296.5t-90 -259t-81 -205h-238 q-51 156 -100 309.5t-90 308.5q-41 -156 -87 -309t-98 -309h-237q-37 86 -80 205t-89 259t-94.5 296.5t-93.5 316.5z" />
<glyph unicode="x" horiz-adv-x="1134" d="M20 0q25 51 68 120.5t93 144.5t105.5 149.5t108.5 140.5q-92 129 -184 261t-182 261h329l213 -327l213 327h316l-369 -518q123 -154 223.5 -299t159.5 -260h-328l-41 77q-25 46 -55.5 96t-64 100.5t-66.5 91.5q-31 -39 -62.5 -86.5t-60 -95.5t-56.5 -95t-48 -88h-312z " />
<glyph unicode="y" horiz-adv-x="1120" d="M10 -336l53 244q47 -16 84 -22.5t78 -6.5q82 0 126 44t75 122q-104 205 -208.5 460t-197.5 572h324q20 -80 48 -173t58.5 -188t62.5 -185.5t60 -163.5q27 74 55.5 164t56.5 185t53.5 188t45.5 173h316q-92 -311 -192.5 -583.5t-219.5 -528.5q-43 -92 -86 -156.5 t-94 -106.5t-115.5 -61.5t-150.5 -19.5q-72 0 -132.5 13.5t-99.5 29.5z" />
<glyph unicode="z" horiz-adv-x="1024" d="M72 0v180q43 74 103.5 159t127 171t132 167t120.5 146h-459v254h856v-205q-37 -41 -99 -110.5t-134 -153.5t-144.5 -176t-132.5 -178h521v-254h-891z" />
<glyph unicode="{" horiz-adv-x="759" d="M72 492v241q92 0 133 53.5t41 139.5v309q0 88 22.5 156.5t74.5 115.5t139 72t216 25h41v-244h-51q-92 0 -124 -41t-32 -127v-272q0 -106 -28.5 -180t-114.5 -128q86 -53 114.5 -126.5t28.5 -180.5v-272q0 -86 32 -127t124 -41h51v-244h-41q-129 0 -216 24.5t-139 71.5 t-74.5 116t-22.5 157v309q0 86 -41 139.5t-133 53.5z" />
<glyph unicode="|" horiz-adv-x="659" d="M184 -379v1983h291v-1983h-291z" />
<glyph unicode="}" horiz-adv-x="759" d="M20 -135h52q92 0 123.5 41t31.5 127v272q0 106 29 180t115 127q-86 53 -115 127t-29 181v272q0 86 -31.5 127t-123.5 41h-52v244h41q129 0 216.5 -25t139.5 -72t74.5 -115.5t22.5 -156.5v-309q0 -86 41 -139.5t133 -53.5v-241q-92 0 -133 -53.5t-41 -139.5v-309 q0 -88 -22.5 -157t-74.5 -116t-139.5 -71.5t-216.5 -24.5h-41v244z" />
<glyph unicode="~" d="M47 465q10 57 32.5 120.5t60.5 117t95.5 88t137.5 34.5q61 0 115.5 -24.5t104.5 -53t96 -53t91 -24.5q16 0 33.5 4t34 19.5t32 45t27.5 80.5l209 -57q-10 -57 -32.5 -120.5t-61.5 -117t-95.5 -88.5t-135.5 -35q-61 0 -115.5 25t-105 53.5t-96.5 53t-91 24.5 q-16 0 -33.5 -4t-34 -19.5t-32 -45t-27.5 -80.5z" />
<glyph unicode="&#xa1;" horiz-adv-x="585" d="M102 889q0 90 58.5 139t132.5 49t132 -49t58 -139t-58 -139.5t-132 -49.5t-132.5 49.5t-58.5 139.5zM131 8q0 166 13.5 309.5t33.5 290.5h234q20 -147 32.5 -290.5t12.5 -309.5v-377h-326v377z" />
<glyph unicode="&#xa2;" d="M92 600q0 90 24.5 173t73 150.5t116 118t153.5 76.5v299h291v-276q53 -8 101 -20.5t95 -33.5l-67 -243q-43 16 -93.5 28.5t-113.5 12.5q-129 0 -199 -77t-70 -208q0 -139 66 -212t215 -73q55 0 118.5 10.5t117.5 32.5l43 -249q-41 -16 -94.5 -29.5t-118.5 -22.5v-280 h-291v299q-188 51 -277.5 192.5t-89.5 331.5z" />
<glyph unicode="&#xa3;" d="M47 559v248h178v108q0 154 37 255.5t101.5 163t154.5 87t197 25.5q82 0 153.5 -16.5t139.5 -45.5l-76 -239q-47 23 -89 33t-102 12q-49 0 -89 -10.5t-68.5 -39t-45 -77.5t-16.5 -123v-133h340v-248h-340q-2 -72 -9 -153.5t-17 -149.5h534v-256h-870q37 164 49 303t16 256 h-178z" />
<glyph unicode="&#xa5;" d="M-10 1419h348q63 -141 121.5 -283.5t128.5 -277.5q68 135 123 279.5t116 281.5h347q-78 -158 -161 -322.5t-177 -330.5h204v-203h-303v-133h303v-203h-303v-227h-309v227h-303v203h303v133h-303v203h205q-43 78 -90 164t-92.5 172t-86 167.5t-71.5 149.5z" />
<glyph unicode="&#xa8;" horiz-adv-x="1097" d="M162 1389q0 72 47 113.5t110 41.5t110.5 -42t47.5 -113q0 -72 -47 -114t-111 -42q-63 0 -110 42t-47 114zM618 1389q0 72 47.5 113.5t110.5 41.5t110.5 -42t47.5 -113q0 -72 -47 -114t-111 -42q-63 0 -110.5 42t-47.5 114z" />
<glyph unicode="&#xa9;" horiz-adv-x="1630" d="M102 711q0 174 58.5 312t157 233.5t227.5 145.5t270 50t270 -50t227.5 -145.5t157 -233.5t58.5 -312t-58.5 -312.5t-157 -233.5t-227.5 -145.5t-270 -50.5t-270 50.5t-227.5 145.5t-157 233.5t-58.5 312.5zM311 711q0 -123 37 -223.5t103.5 -172t160 -110.5t203.5 -39 q111 0 204 39t159.5 110.5t103.5 172t37 223.5t-37 223t-103.5 172t-159.5 110.5t-204 38.5t-204 -38.5t-159.5 -110.5t-103.5 -172t-37 -223zM473 715q0 184 101.5 284.5t267.5 100.5q98 0 158.5 -26.5t82.5 -39.5l-65 -180q-29 16 -64.5 27.5t-93.5 11.5q-68 0 -108.5 -43 t-40.5 -125q0 -37 6 -70.5t22.5 -59.5t45 -42t75.5 -16q61 0 102.5 14t73.5 27l58 -187q-27 -14 -90.5 -38.5t-155.5 -24.5q-182 0 -278.5 100.5t-96.5 286.5z" />
<glyph unicode="&#xab;" horiz-adv-x="1222" d="M41 582l336 491l231 -108l-207 -383l207 -383l-231 -109zM594 582l336 491l231 -108l-207 -383l207 -383l-231 -109z" />
<glyph unicode="&#xad;" horiz-adv-x="696" d="M51 473v277h594v-277h-594z" />
<glyph unicode="&#xae;" horiz-adv-x="1630" d="M102 711q0 174 58.5 312t157 233.5t227.5 145.5t270 50t270 -50t227.5 -145.5t157 -233.5t58.5 -312q0 -176 -58.5 -313.5t-157 -232.5t-227.5 -145.5t-270 -50.5t-270 50.5t-227.5 145.5t-157 232.5t-58.5 313.5zM311 711q0 -123 37 -223.5t103.5 -172t160 -110.5 t203.5 -39q111 0 204 39t159.5 110.5t103.5 172t37 223.5t-37 223t-103.5 172t-159.5 110.5t-204 38.5t-204 -38.5t-159.5 -110.5t-103.5 -172t-37 -223zM545 362v701q70 16 130 23.5t105 7.5q330 0 330 -248q0 -127 -111 -187q23 -35 40.5 -66.5t35 -65t34.5 -73.5t40 -92 h-209q-35 78 -59.5 136.5t-55.5 105.5h-82v-242h-198zM743 764h37q66 0 98.5 17.5t32.5 66.5q0 41 -28.5 57.5t-83.5 16.5q-14 0 -29.5 -1t-26.5 -3v-154z" />
<glyph unicode="&#xaf;" horiz-adv-x="770" d="M55 1276v209h660v-209h-660z" />
<glyph unicode="&#xb4;" horiz-adv-x="585" d="M53 1305l291 331l186 -172l-337 -284z" />
<glyph unicode="&#xb5;" horiz-adv-x="1216" d="M143 -340v1417h306v-577q0 -78 11 -129.5t34.5 -81t58.5 -41.5t82 -12q33 0 68.5 3t64.5 7v831h305v-1040q-80 -23 -191.5 -40t-240.5 -17q-53 0 -108.5 10t-94.5 28q4 -41 7.5 -82.5t3.5 -117.5v-158h-306z" />
<glyph unicode="&#xb7;" horiz-adv-x="503" d="M61 604q0 92 58.5 140t132.5 48t132 -48t58 -140t-58 -140.5t-132 -48.5t-132.5 48.5t-58.5 140.5z" />
<glyph unicode="&#xb8;" horiz-adv-x="667" d="M92 -426l37 178q14 -4 52 -13t75 -9q29 0 50.5 11t23.5 40q2 25 -19.5 45t-68.5 31l-25 6q6 20 17.5 47t23.5 52.5t22.5 47t16.5 31.5h203q-12 -23 -30.5 -60.5t-29.5 -62.5q66 -33 90.5 -78t24.5 -92q0 -98 -77 -149.5t-206 -51.5q-45 0 -90 7.5t-90 19.5z" />
<glyph unicode="&#xbb;" horiz-adv-x="1222" d="M61 199l207 383l-207 383l232 108l336 -491l-336 -492zM614 199l207 383l-207 383l232 108l336 -491l-336 -492z" />
<glyph unicode="&#xbf;" horiz-adv-x="931" d="M51 -43q0 57 17.5 105.5t44 89.5t60.5 77.5t69 69.5q25 25 51 52.5t47.5 58t36 64.5t14.5 69v24q0 16 -2 29h270q4 -20 5.5 -46t1.5 -44q0 -57 -14.5 -104.5t-38 -87.5t-54.5 -73.5t-63 -66.5q-47 -47 -86 -93t-39 -106q0 -49 37.5 -83.5t111.5 -34.5t139.5 18.5 t145.5 58.5l86 -231q-80 -51 -188.5 -78.5t-213.5 -27.5q-131 0 -216 34.5t-134 88t-68.5 117t-19.5 120.5zM330 887q0 90 58 139t132 49t132.5 -49t58.5 -139t-58.5 -139.5t-132.5 -49.5t-132 49.5t-58 139.5z" />
<glyph unicode="&#xc0;" horiz-adv-x="1476" d="M20 0q80 229 152 423.5t140.5 367t135 327t138.5 301.5h305q70 -147 137.5 -301.5t136 -327t140 -367t151.5 -423.5h-342q-23 74 -50.5 151.5t-53.5 155.5h-553q-27 -78 -54.5 -155.5t-50.5 -151.5h-332zM530 561h404q-33 92 -63.5 176t-58.5 154t-48.5 123t-32.5 84 q-10 -31 -30.5 -84t-47 -123t-58.5 -154t-65 -176zM485 1792l186 172l291 -331l-139 -125z" />
<glyph unicode="&#xc1;" horiz-adv-x="1476" d="M20 0q80 229 152 423.5t140.5 367t135 327t138.5 301.5h305q70 -147 137.5 -301.5t136 -327t140 -367t151.5 -423.5h-342q-23 74 -50.5 151.5t-53.5 155.5h-553q-27 -78 -54.5 -155.5t-50.5 -151.5h-332zM530 561h404q-33 92 -63.5 176t-58.5 154t-48.5 123t-32.5 84 q-10 -31 -30.5 -84t-47 -123t-58.5 -154t-65 -176zM497 1633l291 331l186 -172l-337 -284z" />
<glyph unicode="&#xc2;" horiz-adv-x="1476" d="M20 0q80 229 152 423.5t140.5 367t135 327t138.5 301.5h305q70 -147 137.5 -301.5t136 -327t140 -367t151.5 -423.5h-342q-23 74 -50.5 151.5t-53.5 155.5h-553q-27 -78 -54.5 -155.5t-50.5 -151.5h-332zM530 561h404q-33 92 -63.5 176t-58.5 154t-48.5 123t-32.5 84 q-10 -31 -30.5 -84t-47 -123t-58.5 -154t-65 -176zM416 1661l322 281l317 -281l-113 -135l-204 157l-205 -157z" />
<glyph unicode="&#xc3;" horiz-adv-x="1476" d="M20 0q80 229 152 423.5t140.5 367t135 327t138.5 301.5h305q70 -147 137.5 -301.5t136 -327t140 -367t151.5 -423.5h-342q-23 74 -50.5 151.5t-53.5 155.5h-553q-27 -78 -54.5 -155.5t-50.5 -151.5h-332zM530 561h404q-33 92 -63.5 176t-58.5 154t-48.5 123t-32.5 84 q-10 -31 -30.5 -84t-47 -123t-58.5 -154t-65 -176zM364 1659q12 31 33.5 68t52.5 68.5t70 52t86 20.5q37 0 68.5 -11.5t62.5 -24.5t60.5 -24.5t64.5 -11.5q41 0 67.5 27t42.5 61l150 -98q-12 -31 -33.5 -67.5t-52.5 -68.5t-70 -52.5t-86 -20.5q-37 0 -68.5 11.5t-62.5 24.5 t-61.5 24.5t-63.5 11.5q-41 0 -67.5 -26.5t-42.5 -61.5z" />
<glyph unicode="&#xc4;" horiz-adv-x="1476" d="M20 0q80 229 152 423.5t140.5 367t135 327t138.5 301.5h305q70 -147 137.5 -301.5t136 -327t140 -367t151.5 -423.5h-342q-23 74 -50.5 151.5t-53.5 155.5h-553q-27 -78 -54.5 -155.5t-50.5 -151.5h-332zM530 561h404q-33 92 -63.5 176t-58.5 154t-48.5 123t-32.5 84 q-10 -31 -30.5 -84t-47 -123t-58.5 -154t-65 -176zM338 1717q0 72 47 113.5t110 41.5t110.5 -42t47.5 -113q0 -72 -47 -114t-111 -42q-63 0 -110 42t-47 114zM794 1717q0 72 47.5 113.5t110.5 41.5t110.5 -42t47.5 -113q0 -72 -47 -114t-111 -42q-63 0 -110.5 42t-47.5 114z " />
<glyph unicode="&#xc5;" horiz-adv-x="1476" d="M20 0q78 223 148 414.5t137.5 360.5t133 320.5t134.5 297.5q-35 31 -55 74.5t-20 103.5q0 57 19.5 101t53 74t76.5 45t90 15q49 0 93 -15t78 -45t53.5 -74t19.5 -101q0 -59 -21.5 -104.5t-56.5 -73.5q68 -145 134.5 -297t133 -321t137 -360.5t148.5 -414.5h-342 q-23 74 -50.5 151.5t-53.5 155.5h-553q-27 -78 -54.5 -155.5t-50.5 -151.5h-332zM530 561h404q-33 92 -63.5 176t-58.5 154t-48.5 123t-32.5 84q-10 -31 -30.5 -84t-47 -123t-58.5 -154t-65 -176zM645 1571q0 -47 28.5 -71.5t63.5 -24.5q37 0 65.5 24.5t28.5 71.5 t-28.5 71.5t-65.5 24.5q-35 0 -63.5 -24.5t-28.5 -71.5z" />
<glyph unicode="&#xc6;" horiz-adv-x="2035" d="M20 0q250 449 465 800t408 619h1024v-268h-604v-279h532v-262h-532v-342h651v-268h-960v336h-451q-43 -78 -94 -168t-88 -168h-351zM682 590h322v520q-33 -47 -74 -112.5t-85 -136t-86 -142.5t-77 -129z" />
<glyph unicode="&#xc7;" horiz-adv-x="1327" d="M102 711q0 176 55.5 314t152 233.5t229.5 144.5t288 49q90 0 164 -13.5t129.5 -30.5t92 -35.5t53.5 -29.5l-92 -258q-66 35 -153 59.5t-198 24.5q-74 0 -144.5 -24.5t-124.5 -78.5t-87 -140t-33 -209q0 -98 21.5 -183t69.5 -146.5t126 -97.5t189 -36q70 0 125 8t98 19.5 t75.5 26t59.5 26.5l88 -256q-59 -37 -162.5 -66.5t-238.5 -38.5q-8 -16 -14.5 -30.5t-10.5 -24.5q66 -33 90.5 -78t24.5 -92q0 -98 -78 -149.5t-205 -51.5q-45 0 -90 7.5t-90 19.5l37 178q14 -4 52 -13t75 -9q29 0 50.5 11t23.5 40q2 25 -19.5 45t-68.5 31l-25 6 q8 25 21.5 56.5t25.5 60.5q-287 35 -434.5 222t-147.5 509z" />
<glyph unicode="&#xc8;" horiz-adv-x="1241" d="M164 0v1419h958v-268h-639v-279h568v-262h-568v-342h686v-268h-1005zM391 1792l186 172l291 -331l-139 -125z" />
<glyph unicode="&#xc9;" horiz-adv-x="1241" d="M164 0v1419h958v-268h-639v-279h568v-262h-568v-342h686v-268h-1005zM424 1633l291 331l186 -172l-337 -284z" />
<glyph unicode="&#xca;" horiz-adv-x="1241" d="M164 0v1419h958v-268h-639v-279h568v-262h-568v-342h686v-268h-1005zM326 1661l322 281l317 -281l-113 -135l-204 157l-205 -157z" />
<glyph unicode="&#xcb;" horiz-adv-x="1241" d="M164 0v1419h958v-268h-639v-279h568v-262h-568v-342h686v-268h-1005zM252 1717q0 72 47 113.5t110 41.5t110.5 -42t47.5 -113q0 -72 -47 -114t-111 -42q-63 0 -110 42t-47 114zM708 1717q0 72 47.5 113.5t110.5 41.5t110.5 -42t47.5 -113q0 -72 -47 -114t-111 -42 q-63 0 -110.5 42t-47.5 114z" />
<glyph unicode="&#xcc;" horiz-adv-x="647" d="M164 0v1419h319v-1419h-319zM72 1792l186 172l291 -331l-139 -125z" />
<glyph unicode="&#xcd;" horiz-adv-x="647" d="M164 0v1419h319v-1419h-319zM102 1633l291 331l186 -172l-337 -284z" />
<glyph unicode="&#xce;" horiz-adv-x="647" d="M164 0v1419h319v-1419h-319zM8 1661l322 281l317 -281l-113 -135l-204 157l-205 -157z" />
<glyph unicode="&#xcf;" horiz-adv-x="647" d="M164 0v1419h319v-1419h-319zM-57 1717q0 72 47 113.5t110 41.5t110.5 -42t47.5 -113q0 -72 -47 -114t-111 -42q-63 0 -110 42t-47 114zM399 1717q0 72 47.5 113.5t110.5 41.5t110.5 -42t47.5 -113q0 -72 -47 -114t-111 -42q-63 0 -110.5 42t-47.5 114z" />
<glyph unicode="&#xd0;" horiz-adv-x="1531" d="M20 618v236h166v547q111 20 231 27.5t206 7.5q182 0 330.5 -41t255 -129t164 -225.5t57.5 -329.5q0 -184 -57.5 -321.5t-163 -227.5t-257 -135t-340.5 -45q-86 0 -200.5 7t-225.5 29v600h-166zM506 260q23 -2 52.5 -3t70.5 -1q240 0 355.5 121t115.5 334 q0 223 -110.5 337.5t-350.5 114.5q-33 0 -67.5 -1t-65.5 -5v-303h258v-236h-258v-358z" />
<glyph unicode="&#xd1;" horiz-adv-x="1548" d="M164 0v1419h260q68 -68 149.5 -166t166.5 -209.5t169 -231.5t158 -230v837h317v-1419h-268q-137 244 -297 481.5t-340 448.5v-930h-315zM399 1659q12 31 33.5 68t52.5 68.5t70 52t86 20.5q37 0 68.5 -11.5t62.5 -24.5t60.5 -24.5t64.5 -11.5q41 0 67.5 27t42.5 61 l150 -98q-12 -31 -33.5 -67.5t-52.5 -68.5t-70 -52.5t-86 -20.5q-37 0 -68.5 11.5t-62.5 24.5t-61.5 24.5t-63.5 11.5q-41 0 -67.5 -26.5t-42.5 -61.5z" />
<glyph unicode="&#xd2;" horiz-adv-x="1617" d="M102 711q0 182 57.5 320t155 232.5t225.5 141.5t269 47q145 0 274 -47t225.5 -141.5t152 -232.5t55.5 -320t-54.5 -320.5t-148.5 -231.5t-224.5 -140.5t-279.5 -47.5q-145 0 -274 47.5t-225.5 140.5t-152 231.5t-55.5 320.5zM432 711q0 -104 25.5 -188.5t74 -145t118 -93 t159.5 -32.5q88 0 158.5 32.5t119 93t74 144.5t25.5 189q0 104 -25.5 189t-74 145.5t-119 93t-158.5 32.5q-90 0 -159.5 -33.5t-118 -94t-74 -145.5t-25.5 -187zM557 1792l186 172l291 -331l-139 -125z" />
<glyph unicode="&#xd3;" horiz-adv-x="1617" d="M102 711q0 182 57.5 320t155 232.5t225.5 141.5t269 47q145 0 274 -47t225.5 -141.5t152 -232.5t55.5 -320t-54.5 -320.5t-148.5 -231.5t-224.5 -140.5t-279.5 -47.5q-145 0 -274 47.5t-225.5 140.5t-152 231.5t-55.5 320.5zM432 711q0 -104 25.5 -188.5t74 -145t118 -93 t159.5 -32.5q88 0 158.5 32.5t119 93t74 144.5t25.5 189q0 104 -25.5 189t-74 145.5t-119 93t-158.5 32.5q-90 0 -159.5 -33.5t-118 -94t-74 -145.5t-25.5 -187zM573 1633l291 331l186 -172l-337 -284z" />
<glyph unicode="&#xd4;" horiz-adv-x="1617" d="M102 711q0 182 57.5 320t155 232.5t225.5 141.5t269 47q145 0 274 -47t225.5 -141.5t152 -232.5t55.5 -320t-54.5 -320.5t-148.5 -231.5t-224.5 -140.5t-279.5 -47.5q-145 0 -274 47.5t-225.5 140.5t-152 231.5t-55.5 320.5zM432 711q0 -104 25.5 -188.5t74 -145t118 -93 t159.5 -32.5q88 0 158.5 32.5t119 93t74 144.5t25.5 189q0 104 -25.5 189t-74 145.5t-119 93t-158.5 32.5q-90 0 -159.5 -33.5t-118 -94t-74 -145.5t-25.5 -187zM489 1661l322 281l317 -281l-113 -135l-204 157l-205 -157z" />
<glyph unicode="&#xd5;" horiz-adv-x="1617" d="M102 711q0 182 57.5 320t155 232.5t225.5 141.5t269 47q145 0 274 -47t225.5 -141.5t152 -232.5t55.5 -320t-54.5 -320.5t-148.5 -231.5t-224.5 -140.5t-279.5 -47.5q-145 0 -274 47.5t-225.5 140.5t-152 231.5t-55.5 320.5zM432 711q0 -104 25.5 -188.5t74 -145t118 -93 t159.5 -32.5q88 0 158.5 32.5t119 93t74 144.5t25.5 189q0 104 -25.5 189t-74 145.5t-119 93t-158.5 32.5q-90 0 -159.5 -33.5t-118 -94t-74 -145.5t-25.5 -187zM434 1659q12 31 33.5 68t52.5 68.5t70 52t86 20.5q37 0 68.5 -11.5t62.5 -24.5t60.5 -24.5t64.5 -11.5 q41 0 67.5 27t42.5 61l150 -98q-12 -31 -33.5 -67.5t-52.5 -68.5t-70 -52.5t-86 -20.5q-37 0 -68.5 11.5t-62.5 24.5t-61.5 24.5t-63.5 11.5q-41 0 -67.5 -26.5t-42.5 -61.5z" />
<glyph unicode="&#xd6;" horiz-adv-x="1617" d="M102 711q0 182 57.5 320t155 232.5t225.5 141.5t269 47q145 0 274 -47t225.5 -141.5t152 -232.5t55.5 -320t-54.5 -320.5t-148.5 -231.5t-224.5 -140.5t-279.5 -47.5q-145 0 -274 47.5t-225.5 140.5t-152 231.5t-55.5 320.5zM432 711q0 -104 25.5 -188.5t74 -145t118 -93 t159.5 -32.5q88 0 158.5 32.5t119 93t74 144.5t25.5 189q0 104 -25.5 189t-74 145.5t-119 93t-158.5 32.5q-90 0 -159.5 -33.5t-118 -94t-74 -145.5t-25.5 -187zM410 1717q0 72 47 113.5t110 41.5t110.5 -42t47.5 -113q0 -72 -47 -114t-111 -42q-63 0 -110 42t-47 114z M866 1717q0 72 47.5 113.5t110.5 41.5t110.5 -42t47.5 -113q0 -72 -47 -114t-111 -42q-63 0 -110.5 42t-47.5 114z" />
<glyph unicode="&#xd8;" horiz-adv-x="1617" d="M102 711q0 182 57.5 320t155 232.5t225.5 141.5t269 47q203 0 365 -90l114 149l174 -129l-121 -155q82 -92 128.5 -221t46.5 -295q0 -182 -54.5 -320.5t-148.5 -231.5t-224.5 -140.5t-279.5 -47.5q-102 0 -195.5 21.5t-173.5 68.5l-118 -153l-175 129l125 160 q-80 92 -125 220t-45 294zM432 711q0 -141 47 -246l512 661q-80 45 -182 45q-90 0 -159.5 -33.5t-118 -94t-74 -145.5t-25.5 -187zM623 297q84 -45 186 -45q88 0 158.5 32.5t119 93t74 144.5t25.5 189q0 147 -49 252z" />
<glyph unicode="&#xd9;" horiz-adv-x="1447" d="M143 537v882h320v-856q0 -86 19.5 -146.5t53 -98t82 -54t105.5 -16.5q117 0 189.5 71.5t72.5 243.5v856h320v-882q0 -125 -35 -229.5t-106.5 -179.5t-182.5 -116t-262 -41q-150 0 -258.5 42t-179 117t-104.5 178.5t-34 228.5zM430 1792l186 172l291 -331l-139 -125z" />
<glyph unicode="&#xda;" horiz-adv-x="1447" d="M143 537v882h320v-856q0 -86 19.5 -146.5t53 -98t82 -54t105.5 -16.5q117 0 189.5 71.5t72.5 243.5v856h320v-882q0 -125 -35 -229.5t-106.5 -179.5t-182.5 -116t-262 -41q-150 0 -258.5 42t-179 117t-104.5 178.5t-34 228.5zM524 1633l291 331l186 -172l-337 -284z" />
<glyph unicode="&#xdb;" horiz-adv-x="1447" d="M143 537v882h320v-856q0 -86 19.5 -146.5t53 -98t82 -54t105.5 -16.5q117 0 189.5 71.5t72.5 243.5v856h320v-882q0 -125 -35 -229.5t-106.5 -179.5t-182.5 -116t-262 -41q-150 0 -258.5 42t-179 117t-104.5 178.5t-34 228.5zM401 1661l322 281l317 -281l-113 -135 l-204 157l-205 -157z" />
<glyph unicode="&#xdc;" horiz-adv-x="1447" d="M143 537v882h320v-856q0 -86 19.5 -146.5t53 -98t82 -54t105.5 -16.5q117 0 189.5 71.5t72.5 243.5v856h320v-882q0 -125 -35 -229.5t-106.5 -179.5t-182.5 -116t-262 -41q-150 0 -258.5 42t-179 117t-104.5 178.5t-34 228.5zM338 1717q0 72 47 113.5t110 41.5t110.5 -42 t47.5 -113q0 -72 -47 -114t-111 -42q-63 0 -110 42t-47 114zM794 1717q0 72 47.5 113.5t110.5 41.5t110.5 -42t47.5 -113q0 -72 -47 -114t-111 -42q-63 0 -110.5 42t-47.5 114z" />
<glyph unicode="&#xdd;" horiz-adv-x="1353" d="M10 1419h371q66 -147 141.5 -292.5t161.5 -290.5q86 145 164 290.5t143 292.5h352q-117 -229 -241.5 -444t-263.5 -432v-543h-320v539q-139 217 -265 434t-243 446zM487 1633l291 331l186 -172l-337 -284z" />
<glyph unicode="&#xde;" horiz-adv-x="1318" d="M164 0v1419h319v-205q14 2 35 4l41 2q20 1 40 1h32q135 0 248.5 -26t195.5 -83t127 -147.5t45 -219.5q0 -256 -172 -369.5t-491 -113.5h-101v-262h-319zM483 535h101q166 0 250 45t84 168q0 59 -22 98t-61.5 62.5t-97 32.5t-127.5 9q-35 0 -68.5 -2t-58.5 -4v-409z" />
<glyph unicode="&#xdf;" horiz-adv-x="1349" d="M143 0v1092q0 109 29 199.5t89.5 157.5t151.5 103.5t216 36.5q119 0 205 -27.5t141 -73.5t80.5 -108.5t25.5 -130.5q0 -86 -17 -137t-58 -98q-45 -53 -81 -98.5t-36 -102.5q0 -31 16.5 -53.5t43 -43t62.5 -41t76 -42.5q74 -43 129.5 -112.5t55.5 -180.5 q0 -176 -100.5 -270.5t-331.5 -94.5q-113 0 -180.5 20.5t-108.5 37.5l51 246q20 -8 49 -17.5t59.5 -17.5t62.5 -13.5t61 -5.5q137 0 137 111q0 53 -55.5 95t-141.5 81q-59 27 -95 57.5t-54.5 64.5t-24.5 68.5t-6 71.5q0 86 39 144.5t92 119.5q35 41 53.5 76t18.5 88 q0 68 -43 100.5t-117 32.5q-98 0 -146.5 -61.5t-48.5 -175.5v-1098h-299z" />
<glyph unicode="&#xe0;" horiz-adv-x="1132" d="M72 332q0 94 37.5 159.5t101 104.5t145.5 56.5t170 17.5q59 0 105.5 -5.5t75.5 -13.5v29q0 78 -47.5 125t-163.5 47q-78 0 -154 -11.5t-131 -31.5l-39 246q27 8 67 17t87 16.5t99 12.5t105 5q135 0 225.5 -31t144.5 -88t76.5 -139t22.5 -182v-635q-66 -14 -182.5 -34 t-281.5 -20q-104 0 -189.5 18.5t-147 60.5t-94 110t-32.5 166zM375 340q0 -72 48 -99.5t132 -27.5q45 0 86 2t66 6v232q-18 4 -55.5 8t-67.5 4q-43 0 -81 -5t-66.5 -19.5t-45 -39t-16.5 -61.5zM293 1464l186 172l291 -331l-139 -125z" />
<glyph unicode="&#xe1;" horiz-adv-x="1132" d="M72 332q0 94 37.5 159.5t101 104.5t145.5 56.5t170 17.5q59 0 105.5 -5.5t75.5 -13.5v29q0 78 -47.5 125t-163.5 47q-78 0 -154 -11.5t-131 -31.5l-39 246q27 8 67 17t87 16.5t99 12.5t105 5q135 0 225.5 -31t144.5 -88t76.5 -139t22.5 -182v-635q-66 -14 -182.5 -34 t-281.5 -20q-104 0 -189.5 18.5t-147 60.5t-94 110t-32.5 166zM375 340q0 -72 48 -99.5t132 -27.5q45 0 86 2t66 6v232q-18 4 -55.5 8t-67.5 4q-43 0 -81 -5t-66.5 -19.5t-45 -39t-16.5 -61.5zM336 1305l291 331l186 -172l-337 -284z" />
<glyph unicode="&#xe2;" horiz-adv-x="1132" d="M72 332q0 94 37.5 159.5t101 104.5t145.5 56.5t170 17.5q59 0 105.5 -5.5t75.5 -13.5v29q0 78 -47.5 125t-163.5 47q-78 0 -154 -11.5t-131 -31.5l-39 246q27 8 67 17t87 16.5t99 12.5t105 5q135 0 225.5 -31t144.5 -88t76.5 -139t22.5 -182v-635q-66 -14 -182.5 -34 t-281.5 -20q-104 0 -189.5 18.5t-147 60.5t-94 110t-32.5 166zM375 340q0 -72 48 -99.5t132 -27.5q45 0 86 2t66 6v232q-18 4 -55.5 8t-67.5 4q-43 0 -81 -5t-66.5 -19.5t-45 -39t-16.5 -61.5zM213 1321l322 281l317 -281l-113 -135l-204 157l-205 -157z" />
<glyph unicode="&#xe3;" horiz-adv-x="1132" d="M72 332q0 94 37.5 159.5t101 104.5t145.5 56.5t170 17.5q59 0 105.5 -5.5t75.5 -13.5v29q0 78 -47.5 125t-163.5 47q-78 0 -154 -11.5t-131 -31.5l-39 246q27 8 67 17t87 16.5t99 12.5t105 5q135 0 225.5 -31t144.5 -88t76.5 -139t22.5 -182v-635q-66 -14 -182.5 -34 t-281.5 -20q-104 0 -189.5 18.5t-147 60.5t-94 110t-32.5 166zM375 340q0 -72 48 -99.5t132 -27.5q45 0 86 2t66 6v232q-18 4 -55.5 8t-67.5 4q-43 0 -81 -5t-66.5 -19.5t-45 -39t-16.5 -61.5zM174 1325q12 31 33.5 68t52.5 68.5t70 52t86 20.5q37 0 68.5 -11.5t62.5 -24.5 t60.5 -24.5t64.5 -11.5q41 0 67.5 27t42.5 61l150 -98q-12 -31 -33.5 -67.5t-52.5 -68.5t-70 -52.5t-86 -20.5q-37 0 -68.5 11.5t-62.5 24.5t-61.5 24.5t-63.5 11.5q-41 0 -67.5 -26.5t-42.5 -61.5z" />
<glyph unicode="&#xe4;" horiz-adv-x="1132" d="M72 332q0 94 37.5 159.5t101 104.5t145.5 56.5t170 17.5q59 0 105.5 -5.5t75.5 -13.5v29q0 78 -47.5 125t-163.5 47q-78 0 -154 -11.5t-131 -31.5l-39 246q27 8 67 17t87 16.5t99 12.5t105 5q135 0 225.5 -31t144.5 -88t76.5 -139t22.5 -182v-635q-66 -14 -182.5 -34 t-281.5 -20q-104 0 -189.5 18.5t-147 60.5t-94 110t-32.5 166zM375 340q0 -72 48 -99.5t132 -27.5q45 0 86 2t66 6v232q-18 4 -55.5 8t-67.5 4q-43 0 -81 -5t-66.5 -19.5t-45 -39t-16.5 -61.5zM158 1389q0 72 47 113.5t110 41.5t110.5 -42t47.5 -113q0 -72 -47 -114 t-111 -42q-63 0 -110 42t-47 114zM614 1389q0 72 47.5 113.5t110.5 41.5t110.5 -42t47.5 -113q0 -72 -47 -114t-111 -42q-63 0 -110.5 42t-47.5 114z" />
<glyph unicode="&#xe5;" horiz-adv-x="1132" d="M72 332q0 94 37.5 159.5t101 104.5t145.5 56.5t170 17.5q59 0 105.5 -5.5t75.5 -13.5v29q0 78 -47.5 125t-163.5 47q-78 0 -154 -11.5t-131 -31.5l-39 246q27 8 67 17t87 16.5t99 12.5t105 5q135 0 225.5 -31t144.5 -88t76.5 -139t22.5 -182v-635q-66 -14 -182.5 -34 t-281.5 -20q-104 0 -189.5 18.5t-147 60.5t-94 110t-32.5 166zM375 340q0 -72 48 -99.5t132 -27.5q45 0 86 2t66 6v232q-18 4 -55.5 8t-67.5 4q-43 0 -81 -5t-66.5 -19.5t-45 -39t-16.5 -61.5zM326 1432q0 57 19.5 101t53.5 73.5t77 45t90 15.5q49 0 93 -15.5t78 -45 t53 -73.5t19 -101t-19 -101.5t-53 -74t-78 -45t-93 -15.5q-47 0 -90 15.5t-77 45t-53.5 74t-19.5 101.5zM474 1432q0 -47 28.5 -72t63.5 -25q37 0 65.5 24.5t28.5 72.5q0 47 -28.5 71.5t-65.5 24.5q-35 0 -63.5 -24.5t-28.5 -71.5z" />
<glyph unicode="&#xe6;" horiz-adv-x="1789" d="M72 332q0 94 37.5 159.5t101 104.5t145.5 56.5t170 17.5q59 0 105.5 -5.5t75.5 -13.5v35q0 78 -47.5 122t-163.5 44q-78 0 -154 -11.5t-131 -31.5l-39 246q27 8 67 17t87 16.5t99 12.5t105 5q63 0 114.5 -8t91.5 -25.5t73 -45.5t61 -66q70 78 158 111.5t189 33.5 q111 0 198.5 -36t151 -105.5t97.5 -173t34 -238.5q0 -27 -2 -58.5t-4 -56.5h-693q10 -94 88 -149.5t209 -55.5q84 0 165 15.5t132 38.5l41 -248q-25 -12 -65.5 -24.5t-91 -21.5t-107.5 -15.5t-115 -6.5q-121 0 -211 27t-153 70q-154 -90 -356 -91q-104 0 -189.5 18.5 t-147 60.5t-94 110t-32.5 166zM375 340q0 -72 48 -99.5t132 -27.5q63 0 115.5 7t91.5 24q-29 74 -39 120t-12 93q-29 4 -68 6t-59 2q-43 0 -81 -5t-66.5 -19.5t-45 -39t-16.5 -61.5zM997 647h404q-2 39 -13.5 76t-35 65.5t-59.5 47t-89 18.5q-51 0 -88 -17.5t-61.5 -46 t-38 -66.5t-19.5 -77z" />
<glyph unicode="&#xe7;" horiz-adv-x="1024" d="M92 539q0 117 38 220t109.5 180t174 122t233.5 45q86 0 158 -15.5t139 -43.5l-63 -244q-43 16 -94.5 28.5t-114.5 12.5q-135 0 -202 -84t-67 -221q0 -145 62.5 -225.5t218.5 -80.5q55 0 118.5 10.5t117.5 32.5l43 -249q-47 -20 -116 -35t-151 -19q-8 -16 -14 -30.5 t-10 -24.5q66 -33 90 -78t24 -92q0 -98 -77.5 -149.5t-204.5 -51.5q-45 0 -90 7.5t-90 19.5l36 178q14 -4 52.5 -13t74.5 -9q29 0 50.5 11t23.5 40q2 25 -19.5 45t-68.5 31l-24 6q8 27 22 60.5t29 62.5q-106 20 -183 70t-127.5 123t-74 165.5t-23.5 194.5z" />
<glyph unicode="&#xe8;" horiz-adv-x="1196" d="M92 530q0 143 44 251t116 179.5t165 108.5t191 37q229 0 362.5 -140.5t133.5 -412.5q0 -27 -2 -58.5t-4 -56.5h-692q10 -94 87.5 -149.5t208.5 -55.5q84 0 165 15.5t132 38.5l41 -248q-25 -12 -65.5 -24.5t-90.5 -21.5t-107.5 -15.5t-114.5 -6.5q-145 0 -253 43 t-178.5 118t-104.5 177t-34 221zM406 647h403q-2 39 -13.5 76t-35 65.5t-59 47t-89.5 18.5q-51 0 -88 -17.5t-61.5 -46t-37.5 -66.5t-19 -77zM346 1464l186 172l291 -331l-139 -125z" />
<glyph unicode="&#xe9;" horiz-adv-x="1196" d="M92 530q0 143 44 251t116 179.5t165 108.5t191 37q229 0 362.5 -140.5t133.5 -412.5q0 -27 -2 -58.5t-4 -56.5h-692q10 -94 87.5 -149.5t208.5 -55.5q84 0 165 15.5t132 38.5l41 -248q-25 -12 -65.5 -24.5t-90.5 -21.5t-107.5 -15.5t-114.5 -6.5q-145 0 -253 43 t-178.5 118t-104.5 177t-34 221zM406 647h403q-2 39 -13.5 76t-35 65.5t-59 47t-89.5 18.5q-51 0 -88 -17.5t-61.5 -46t-37.5 -66.5t-19 -77zM379 1305l291 331l186 -172l-337 -284z" />
<glyph unicode="&#xea;" horiz-adv-x="1196" d="M92 530q0 143 44 251t116 179.5t165 108.5t191 37q229 0 362.5 -140.5t133.5 -412.5q0 -27 -2 -58.5t-4 -56.5h-692q10 -94 87.5 -149.5t208.5 -55.5q84 0 165 15.5t132 38.5l41 -248q-25 -12 -65.5 -24.5t-90.5 -21.5t-107.5 -15.5t-114.5 -6.5q-145 0 -253 43 t-178.5 118t-104.5 177t-34 221zM406 647h403q-2 39 -13.5 76t-35 65.5t-59 47t-89.5 18.5q-51 0 -88 -17.5t-61.5 -46t-37.5 -66.5t-19 -77zM276 1321l322 281l317 -281l-113 -135l-204 157l-205 -157z" />
<glyph unicode="&#xeb;" horiz-adv-x="1196" d="M92 530q0 143 44 251t116 179.5t165 108.5t191 37q229 0 362.5 -140.5t133.5 -412.5q0 -27 -2 -58.5t-4 -56.5h-692q10 -94 87.5 -149.5t208.5 -55.5q84 0 165 15.5t132 38.5l41 -248q-25 -12 -65.5 -24.5t-90.5 -21.5t-107.5 -15.5t-114.5 -6.5q-145 0 -253 43 t-178.5 118t-104.5 177t-34 221zM406 647h403q-2 39 -13.5 76t-35 65.5t-59 47t-89.5 18.5q-51 0 -88 -17.5t-61.5 -46t-37.5 -66.5t-19 -77zM223 1389q0 72 47 113.5t110 41.5t110.5 -42t47.5 -113q0 -72 -47 -114t-111 -42q-63 0 -110 42t-47 114zM679 1389 q0 72 47.5 113.5t110.5 41.5t110.5 -42t47.5 -113q0 -72 -47 -114t-111 -42q-63 0 -110.5 42t-47.5 114z" />
<glyph unicode="&#xec;" horiz-adv-x="591" d="M143 0v1077h306v-1077h-306zM45 1464l186 172l291 -331l-139 -125z" />
<glyph unicode="&#xed;" horiz-adv-x="591" d="M143 0v1077h306v-1077h-306zM84 1305l291 331l186 -172l-337 -284z" />
<glyph unicode="&#xee;" horiz-adv-x="591" d="M143 0v1077h306v-1077h-306zM-20 1321l322 281l317 -281l-113 -135l-204 157l-205 -157z" />
<glyph unicode="&#xef;" horiz-adv-x="591" d="M143 0v1077h306v-1077h-306zM-98 1389q0 72 47 113.5t110 41.5t110.5 -42t47.5 -113q0 -72 -47 -114t-111 -42q-63 0 -110 42t-47 114zM358 1389q0 72 47.5 113.5t110.5 41.5t110.5 -42t47.5 -113q0 -72 -47 -114t-111 -42q-63 0 -110.5 42t-47.5 114z" />
<glyph unicode="&#xf0;" horiz-adv-x="1230" d="M92 479q0 113 32 207t95.5 159.5t159.5 102.5t225 37q53 0 111.5 -15.5t99.5 -35.5q-25 109 -88 211l-227 -76l-60 172l164 55q-35 35 -73.5 66t-79.5 59l170 176q72 -41 136 -93t120 -115l235 79l59 -172l-182 -61q72 -123 113 -266.5t41 -304.5q0 -154 -32 -281 t-97.5 -218t-167 -142.5t-240.5 -51.5q-129 0 -225 41t-160.5 109.5t-96.5 161t-32 196.5zM399 483q0 -111 50.5 -179t156.5 -68q68 0 112 33.5t69.5 90t34.5 130t9 151.5v13q0 9 -2 20q-51 41 -103 54t-101 13q-66 0 -109 -20.5t-69.5 -55t-37 -82t-10.5 -100.5z" />
<glyph unicode="&#xf1;" horiz-adv-x="1206" d="M143 0v1040q78 23 201 42.5t258 19.5q137 0 228.5 -36t144.5 -101.5t75.5 -155.5t22.5 -201v-608h-305v571q0 147 -39 209t-145 62q-33 0 -70 -3t-65 -8v-831h-306zM229 1325q12 31 33.5 68t52.5 68.5t70 52t86 20.5q37 0 68.5 -11.5t62.5 -24.5t60.5 -24.5t64.5 -11.5 q41 0 67.5 27t42.5 61l150 -98q-12 -31 -33.5 -67.5t-52.5 -68.5t-70 -52.5t-86 -20.5q-37 0 -68.5 11.5t-62.5 24.5t-61.5 24.5t-63.5 11.5q-41 0 -67.5 -26.5t-42.5 -61.5z" />
<glyph unicode="&#xf2;" horiz-adv-x="1243" d="M92 541q0 127 40 231.5t110.5 178t168 114.5t212.5 41q117 0 214 -41t166.5 -114.5t108.5 -178t39 -231.5t-37 -232.5t-106.5 -180.5t-167 -116t-217.5 -41q-119 0 -216.5 41t-167 116t-108.5 180.5t-39 232.5zM403 541q0 -141 57.5 -224.5t162.5 -83.5q104 0 160.5 83 t56.5 225q0 141 -56.5 222t-160.5 81t-162 -81t-58 -222zM369 1464l186 172l291 -331l-139 -125z" />
<glyph unicode="&#xf3;" horiz-adv-x="1243" d="M92 541q0 127 40 231.5t110.5 178t168 114.5t212.5 41q117 0 214 -41t166.5 -114.5t108.5 -178t39 -231.5t-37 -232.5t-106.5 -180.5t-167 -116t-217.5 -41q-119 0 -216.5 41t-167 116t-108.5 180.5t-39 232.5zM403 541q0 -141 57.5 -224.5t162.5 -83.5q104 0 160.5 83 t56.5 225q0 141 -56.5 222t-160.5 81t-162 -81t-58 -222zM397 1305l291 331l186 -172l-337 -284z" />
<glyph unicode="&#xf4;" horiz-adv-x="1243" d="M92 541q0 127 40 231.5t110.5 178t168 114.5t212.5 41q117 0 214 -41t166.5 -114.5t108.5 -178t39 -231.5t-37 -232.5t-106.5 -180.5t-167 -116t-217.5 -41q-119 0 -216.5 41t-167 116t-108.5 180.5t-39 232.5zM403 541q0 -141 57.5 -224.5t162.5 -83.5q104 0 160.5 83 t56.5 225q0 141 -56.5 222t-160.5 81t-162 -81t-58 -222zM299 1321l322 281l317 -281l-113 -135l-204 157l-205 -157z" />
<glyph unicode="&#xf5;" horiz-adv-x="1243" d="M92 541q0 127 40 231.5t110.5 178t168 114.5t212.5 41q117 0 214 -41t166.5 -114.5t108.5 -178t39 -231.5t-37 -232.5t-106.5 -180.5t-167 -116t-217.5 -41q-119 0 -216.5 41t-167 116t-108.5 180.5t-39 232.5zM403 541q0 -141 57.5 -224.5t162.5 -83.5q104 0 160.5 83 t56.5 225q0 141 -56.5 222t-160.5 81t-162 -81t-58 -222zM241 1325q12 31 33.5 68t52.5 68.5t70 52t86 20.5q37 0 68.5 -11.5t62.5 -24.5t60.5 -24.5t64.5 -11.5q41 0 67.5 27t42.5 61l150 -98q-12 -31 -33.5 -67.5t-52.5 -68.5t-70 -52.5t-86 -20.5q-37 0 -68.5 11.5 t-62.5 24.5t-61.5 24.5t-63.5 11.5q-41 0 -67.5 -26.5t-42.5 -61.5z" />
<glyph unicode="&#xf6;" horiz-adv-x="1243" d="M92 541q0 127 40 231.5t110.5 178t168 114.5t212.5 41q117 0 214 -41t166.5 -114.5t108.5 -178t39 -231.5t-37 -232.5t-106.5 -180.5t-167 -116t-217.5 -41q-119 0 -216.5 41t-167 116t-108.5 180.5t-39 232.5zM403 541q0 -141 57.5 -224.5t162.5 -83.5q104 0 160.5 83 t56.5 225q0 141 -56.5 222t-160.5 81t-162 -81t-58 -222zM236 1389q0 72 47 113.5t110 41.5t110.5 -42t47.5 -113q0 -72 -47 -114t-111 -42q-63 0 -110 42t-47 114zM692 1389q0 72 47.5 113.5t110.5 41.5t110.5 -42t47.5 -113q0 -72 -47 -114t-111 -42q-63 0 -110.5 42 t-47.5 114z" />
<glyph unicode="&#xf8;" horiz-adv-x="1243" d="M92 541q0 127 40 231.5t110.5 178t168 114.5t212.5 41q76 0 143.5 -17.5t124.5 -50.5l94 121l143 -108l-100 -129q59 -72 91 -168.5t32 -212.5q0 -127 -37 -232.5t-106.5 -180.5t-167 -116t-217.5 -41q-154 0 -275 70l-92 -121l-143 109l100 129q-59 74 -90 170t-31 213z M387 541q0 -39 3 -73t13 -62l328 425q-47 29 -108 29q-111 0 -173.5 -84.5t-62.5 -234.5zM510 248q49 -31 113 -31q111 0 172 87t61 237q0 70 -16 135z" />
<glyph unicode="&#xf9;" horiz-adv-x="1206" d="M133 477v600h305v-563q0 -147 39 -212.5t146 -65.5q33 0 69.5 3t65.5 7v831h305v-1040q-78 -23 -201 -42.5t-258 -19.5q-137 0 -228 37t-144.5 103.5t-76 158.5t-22.5 203zM303 1464l186 172l291 -331l-139 -125z" />
<glyph unicode="&#xfa;" horiz-adv-x="1206" d="M133 477v600h305v-563q0 -147 39 -212.5t146 -65.5q33 0 69.5 3t65.5 7v831h305v-1040q-78 -23 -201 -42.5t-258 -19.5q-137 0 -228 37t-144.5 103.5t-76 158.5t-22.5 203zM383 1305l291 331l186 -172l-337 -284z" />
<glyph unicode="&#xfb;" horiz-adv-x="1206" d="M133 477v600h305v-563q0 -147 39 -212.5t146 -65.5q33 0 69.5 3t65.5 7v831h305v-1040q-78 -23 -201 -42.5t-258 -19.5q-137 0 -228 37t-144.5 103.5t-76 158.5t-22.5 203zM281 1321l322 281l317 -281l-113 -135l-204 157l-205 -157z" />
<glyph unicode="&#xfc;" horiz-adv-x="1206" d="M133 477v600h305v-563q0 -147 39 -212.5t146 -65.5q33 0 69.5 3t65.5 7v831h305v-1040q-78 -23 -201 -42.5t-258 -19.5q-137 0 -228 37t-144.5 103.5t-76 158.5t-22.5 203zM213 1389q0 72 47 113.5t110 41.5t110.5 -42t47.5 -113q0 -72 -47 -114t-111 -42q-63 0 -110 42 t-47 114zM669 1389q0 72 47.5 113.5t110.5 41.5t110.5 -42t47.5 -113q0 -72 -47 -114t-111 -42q-63 0 -110.5 42t-47.5 114z" />
<glyph unicode="&#xfd;" horiz-adv-x="1120" d="M10 -336l53 244q47 -16 84 -22.5t78 -6.5q82 0 126 44t75 122q-104 205 -208.5 460t-197.5 572h324q20 -80 48 -173t58.5 -188t62.5 -185.5t60 -163.5q27 74 55.5 164t56.5 185t53.5 188t45.5 173h316q-92 -311 -192.5 -583.5t-219.5 -528.5q-43 -92 -86 -156.5 t-94 -106.5t-115.5 -61.5t-150.5 -19.5q-72 0 -132.5 13.5t-99.5 29.5zM403 1305l291 331l186 -172l-337 -284z" />
<glyph unicode="&#xfe;" horiz-adv-x="1236" d="M143 -379v1919l306 49v-508q35 10 77.5 15.5t75.5 5.5q125 0 225.5 -40t171 -112.5t108.5 -177t38 -233.5q0 -125 -31 -227.5t-90 -176.5t-147.5 -114.5t-202.5 -40.5q-63 0 -118.5 12t-106.5 35v-406h-306zM449 281q29 -18 74.5 -30.5t92.5 -12.5q217 0 218 292 q0 141 -62.5 226.5t-179.5 85.5q-41 0 -81 -5.5t-62 -13.5v-542z" />
<glyph unicode="&#xff;" horiz-adv-x="1120" d="M10 -336l53 244q47 -16 84 -22.5t78 -6.5q82 0 126 44t75 122q-104 205 -208.5 460t-197.5 572h324q20 -80 48 -173t58.5 -188t62.5 -185.5t60 -163.5q27 74 55.5 164t56.5 185t53.5 188t45.5 173h316q-92 -311 -192.5 -583.5t-219.5 -528.5q-43 -92 -86 -156.5 t-94 -106.5t-115.5 -61.5t-150.5 -19.5q-72 0 -132.5 13.5t-99.5 29.5zM180 1389q0 72 47 113.5t110 41.5t110.5 -42t47.5 -113q0 -72 -47 -114t-111 -42q-63 0 -110 42t-47 114zM636 1389q0 72 47.5 113.5t110.5 41.5t110.5 -42t47.5 -113q0 -72 -47 -114t-111 -42 q-63 0 -110.5 42t-47.5 114z" />
<glyph unicode="&#x106;" horiz-adv-x="1327" d="M102 711q0 176 55.5 314t152 233.5t229.5 144.5t288 49q90 0 164 -13.5t129.5 -30.5t92 -35.5t53.5 -29.5l-92 -258q-66 35 -153 59.5t-198 24.5q-74 0 -144.5 -24.5t-124.5 -78.5t-87 -140t-33 -209q0 -98 21.5 -183t69.5 -146.5t126 -97.5t189 -36q70 0 125 8t98 19.5 t75.5 26t59.5 26.5l88 -256q-68 -41 -190.5 -74t-284.5 -33q-346 0 -527.5 193t-181.5 547zM585 1633l291 331l186 -172l-337 -284z" />
<glyph unicode="&#x107;" horiz-adv-x="1024" d="M92 539q0 117 38 220t109.5 180t174 122t233.5 45q86 0 158 -15.5t139 -43.5l-63 -244q-43 16 -94.5 28.5t-114.5 12.5q-135 0 -202 -84t-67 -221q0 -145 62.5 -225.5t218.5 -80.5q55 0 118.5 10.5t117.5 32.5l43 -249q-53 -23 -133 -39.5t-177 -16.5q-147 0 -253.5 44 t-175 120t-100.5 179.5t-32 224.5zM409 1305l291 331l186 -172l-337 -284z" />
<glyph unicode="&#x10c;" horiz-adv-x="1327" d="M102 711q0 176 55.5 314t152 233.5t229.5 144.5t288 49q90 0 164 -13.5t129.5 -30.5t92 -35.5t53.5 -29.5l-92 -258q-66 35 -153 59.5t-198 24.5q-74 0 -144.5 -24.5t-124.5 -78.5t-87 -140t-33 -209q0 -98 21.5 -183t69.5 -146.5t126 -97.5t189 -36q70 0 125 8t98 19.5 t75.5 26t59.5 26.5l88 -256q-68 -41 -190.5 -74t-284.5 -33q-346 0 -527.5 193t-181.5 547zM483 1811l113 135l205 -158l204 158l117 -135l-321 -281z" />
<glyph unicode="&#x10d;" horiz-adv-x="1024" d="M92 539q0 117 38 220t109.5 180t174 122t233.5 45q86 0 158 -15.5t139 -43.5l-63 -244q-43 16 -94.5 28.5t-114.5 12.5q-135 0 -202 -84t-67 -221q0 -145 62.5 -225.5t218.5 -80.5q55 0 118.5 10.5t117.5 32.5l43 -249q-53 -23 -133 -39.5t-177 -16.5q-147 0 -253.5 44 t-175 120t-100.5 179.5t-32 224.5zM297 1481l113 135l205 -158l204 158l117 -135l-321 -281z" />
<glyph unicode="&#x110;" horiz-adv-x="1531" d="M20 618v236h166v547q111 20 231 27.5t206 7.5q182 0 330.5 -41t255 -129t164 -225.5t57.5 -329.5q0 -184 -57.5 -321.5t-163 -227.5t-257 -135t-340.5 -45q-86 0 -200.5 7t-225.5 29v600h-166zM506 260q23 -2 52.5 -3t70.5 -1q240 0 355.5 121t115.5 334 q0 223 -110.5 337.5t-350.5 114.5q-33 0 -67.5 -1t-65.5 -5v-303h258v-236h-258v-358z" />
<glyph unicode="&#x111;" horiz-adv-x="1241" d="M92 518q0 125 33 226.5t94.5 174t150.5 112.5t203 40q63 0 113.5 -12t101.5 -35v197h-292v190h292v129l306 49v-178h127v-190h-127v-1186q-41 -12 -94.5 -23.5t-112 -19.5t-118.5 -13.5t-116 -5.5q-133 0 -237.5 39t-176 111t-109.5 172t-38 223zM403 532 q0 -129 64.5 -214t187.5 -85q82 0 133 11v526q-29 18 -74.5 30.5t-92.5 12.5q-111 0 -164.5 -73t-53.5 -208z" />
<glyph unicode="&#x127;" horiz-adv-x="1226" d="M37 1221v190h127v129l305 49v-178h293v-190h-293v-179q31 10 79 19.5t93 9.5q131 0 218 -36t139.5 -101.5t74 -155.5t21.5 -200v-578h-306v541q0 147 -37.5 208.5t-140.5 61.5q-41 0 -76.5 -7t-64.5 -16v-788h-305v1221h-127z" />
<glyph unicode="&#x131;" horiz-adv-x="591" d="M143 0v1077h306v-1077h-306z" />
<glyph unicode="&#x138;" horiz-adv-x="1191" d="M143 0v1077h306v-403q45 49 93 103t93 108.5t86 103.5t72 88h362q-45 -55 -102.5 -120.5t-119 -131t-118.5 -128t-102 -107.5q61 -59 127.5 -133t128 -153t114 -157.5t88.5 -146.5h-350q-33 53 -76 115.5t-92 124t-101 119t-103 100.5v-459h-306z" />
<glyph unicode="&#x152;" horiz-adv-x="2041" d="M102 711q0 186 58.5 321t164 224.5t254 132.5t328.5 43q47 0 105.5 -3.5t105.5 -9.5h805v-268h-604v-279h532v-262h-532v-342h651v-268h-852q-47 -6 -105.5 -9t-105.5 -3q-180 0 -328.5 43t-254 132t-164 225.5t-58.5 322.5zM430 711q0 -219 117 -336t356 -117h46 q22 0 61 2v899q-41 2 -60 2h-47q-240 0 -356.5 -115.5t-116.5 -334.5z" />
<glyph unicode="&#x153;" horiz-adv-x="1918" d="M92 541q0 127 38 231.5t107.5 178t166 114.5t210.5 41q238 0 371 -176q74 98 164 137t182 39q229 0 362.5 -139.5t133.5 -413.5q0 -27 -2 -58.5t-4 -56.5h-693q10 -94 88 -149.5t209 -55.5q86 0 166 15.5t131 38.5l41 -248q-25 -12 -65.5 -24.5t-91 -21.5t-107.5 -15.5 t-115 -6.5q-131 0 -236.5 42t-176.5 128q-68 -82 -160 -126t-197 -44q-119 0 -215 41t-164.5 116t-105.5 180.5t-37 232.5zM403 541q0 -141 57.5 -224.5t162.5 -83.5q104 0 160.5 83t56.5 225q0 141 -56.5 222t-160.5 81t-162 -81t-58 -222zM1128 647h404q-2 39 -13.5 76 t-35 65.5t-60.5 47t-88 18.5q-53 0 -89 -17.5t-60.5 -46t-38 -66.5t-19.5 -77z" />
<glyph unicode="&#x160;" horiz-adv-x="1191" d="M76 80l90 254q63 -35 156.5 -62.5t228.5 -27.5q68 0 112 11t70.5 30.5t36.5 46t10 59.5q0 70 -65.5 116t-225.5 99q-70 25 -139 56.5t-124.5 80t-90.5 117t-35 166.5t37 177t104.5 134.5t164 85t217.5 29.5q143 0 247.5 -30.5t171.5 -67.5l-92 -252q-59 31 -132 54.5 t-175 23.5q-115 0 -165 -32t-50 -97q0 -39 18.5 -66t52 -48.5t78 -38.5t97.5 -36q111 -41 192.5 -81t136 -93t81 -124.5t26.5 -174.5q0 -199 -139.5 -308.5t-419.5 -109.5q-94 0 -170 11.5t-134.5 28t-100 35t-70.5 34.5zM307 1811l113 135l205 -158l204 158l117 -135 l-321 -281z" />
<glyph unicode="&#x161;" horiz-adv-x="993" d="M80 37l51 248q78 -31 160 -48.5t162 -17.5q84 0 118.5 16.5t34.5 63.5q0 37 -45 64.5t-137 62.5q-72 27 -130 55.5t-99 68.5t-63.5 95t-22.5 133q0 152 112.5 240t308.5 88q98 0 188.5 -17.5t143.5 -37.5l-53 -238q-53 18 -115.5 32.5t-140.5 14.5q-143 0 -143 -80 q0 -18 6 -32.5t24.5 -27.5t50 -28.5t80.5 -34.5q100 -37 166 -72.5t104 -77.5t53 -93.5t15 -118.5q0 -160 -119.5 -242t-338.5 -82q-143 0 -238.5 25t-132.5 41zM213 1481l113 135l205 -158l204 158l117 -135l-321 -281z" />
<glyph unicode="&#x178;" horiz-adv-x="1353" d="M10 1419h371q66 -147 141.5 -292.5t161.5 -290.5q86 145 164 290.5t143 292.5h352q-117 -229 -241.5 -444t-263.5 -432v-543h-320v539q-139 217 -265 434t-243 446zM291 1717q0 72 47 113.5t110 41.5t110.5 -42t47.5 -113q0 -72 -47 -114t-111 -42q-63 0 -110 42t-47 114 zM747 1717q0 72 47.5 113.5t110.5 41.5t110.5 -42t47.5 -113q0 -72 -47 -114t-111 -42q-63 0 -110.5 42t-47.5 114z" />
<glyph unicode="&#x17d;" horiz-adv-x="1249" d="M72 0v190q57 104 140 232.5t173 258.5t183.5 252t172.5 218h-637v268h1061v-221q-66 -68 -155.5 -175.5t-186 -234t-190.5 -262t-168 -258.5h723v-268h-1116zM319 1811l113 135l205 -158l204 158l117 -135l-321 -281z" />
<glyph unicode="&#x17e;" horiz-adv-x="1024" d="M72 0v180q43 74 103.5 159t127 171t132 167t120.5 146h-459v254h856v-205q-37 -41 -99 -110.5t-134 -153.5t-144.5 -176t-132.5 -178h521v-254h-891zM209 1481l113 135l205 -158l204 158l117 -135l-321 -281z" />
<glyph unicode="&#x182;" horiz-adv-x="1331" d="M164 33v1386h942v-270h-637v-234h104q158 0 282 -24.5t209 -79.5t130 -143t45 -215q0 -236 -171 -351.5t-488 -115.5q-86 0 -195.5 10t-220.5 37zM469 262q23 -2 54.5 -3t72.5 -1q63 0 120.5 8t101.5 29.5t70.5 58.5t26.5 97q0 61 -24.5 100t-69.5 61.5t-110.5 30.5 t-147.5 8h-94v-389z" />
<glyph unicode="&#x18f;" horiz-adv-x="1495" d="M102 682q0 23 5.5 64.5t9.5 64.5h940q-10 100 -40 170t-80 113t-124 62.5t-174 19.5q-61 0 -115.5 -10.5t-102.5 -25t-86 -29.5t-65 -28l-82 250q25 14 70 35t106.5 39t136 31.5t158.5 13.5q195 0 334.5 -56.5t228.5 -155.5t130 -233.5t41 -289.5q0 -186 -49.5 -326.5 t-138.5 -234t-211 -139.5t-267 -46q-141 0 -256 45t-196.5 134.5t-127 222.5t-45.5 309zM434 549q12 -145 88 -226t207 -81q78 0 134.5 24.5t94 66.5t59 97t30.5 119h-613z" />
<glyph unicode="&#x192;" horiz-adv-x="864" d="M-147 -350l41 248q31 -10 56 -14.5t64 -4.5q72 0 100.5 43t28.5 125v1088q0 209 118 331.5t349 122.5q86 0 158 -17.5t111 -33.5l-60 -244q-41 18 -89 27.5t-89 9.5q-55 0 -93 -15.5t-59.5 -42t-30.5 -63t-9 -80.5v-53h376v-254h-376v-784q0 -215 -103.5 -316.5 t-302.5 -101.5q-29 0 -85 6.5t-105 22.5z" />
<glyph unicode="&#x1b7;" horiz-adv-x="1257" d="M41 92l94 254q68 -35 171.5 -69.5t221.5 -34.5q135 0 211 42t76 140q0 59 -25.5 98t-71.5 62.5t-110.5 33t-142.5 9.5h-100v176q39 39 83 85t89 93t86 91t71 81h-579v266h993v-190q-25 -31 -68 -80t-94 -104.5t-104.5 -113t-100.5 -106.5q219 -39 311.5 -139t92.5 -266 q0 -117 -44 -202t-125 -140t-194.5 -82t-251.5 -27q-86 0 -161.5 13.5t-139 32t-111.5 40t-77 37.5z" />
<glyph unicode="&#x1dd;" horiz-adv-x="1196" d="M92 524q0 27 2 58.5t4 56.5h693q-10 94 -88 149.5t-209 55.5q-86 0 -166 -15.5t-131 -37.5l-41 247q25 12 65.5 24.5t90.5 22t107.5 15.5t115.5 6q145 0 252.5 -43t178 -118t104.5 -177t34 -221q0 -143 -44 -251t-116 -180.5t-165 -108.5t-191 -36q-229 0 -362.5 139.5 t-133.5 413.5zM387 430q2 -39 13.5 -76t34 -66.5t59 -47t90.5 -17.5q51 0 88 17.5t61.5 46t37.5 65.5t20 78h-404z" />
<glyph unicode="&#x292;" horiz-adv-x="1054" d="M10 -297l68 244q33 -14 74 -26.5t85 -21t88 -12.5t85 -4q127 0 191.5 53.5t64.5 147.5q0 106 -78 157.5t-223 51.5h-111v178q33 37 72 83t76.5 93t74.5 93t66 83h-480v254h867v-209q-25 -33 -59.5 -75.5t-75.5 -91t-85 -101.5t-89 -108q74 -20 138 -56.5t111.5 -88.5 t75 -120.5t27.5 -154.5q0 -225 -144.5 -338t-398.5 -113q-57 0 -116.5 6t-116 17.5t-104.5 27t-83 31.5z" />
<glyph unicode="&#x2c6;" horiz-adv-x="815" d="M86 1321l322 281l317 -281l-113 -135l-204 157l-205 -157z" />
<glyph unicode="&#x2c7;" horiz-adv-x="794" d="M92 1481l113 135l205 -158l204 158l117 -135l-321 -281z" />
<glyph unicode="&#x2d8;" horiz-adv-x="839" d="M88 1548v17h207q6 -86 41 -116t84 -30t84 30t41 116h207v-17q0 -76 -26 -136t-70 -101t-105.5 -63.5t-130.5 -22.5q-72 0 -132.5 22.5t-104.5 63.5t-69.5 101t-25.5 136z" />
<glyph unicode="&#x2d9;" horiz-adv-x="503" d="M90 1389q0 74 48 116.5t114 42.5t114 -43t48 -116q0 -74 -48.5 -117t-113.5 -43q-66 0 -114 43t-48 117z" />
<glyph unicode="&#x2da;" horiz-adv-x="663" d="M90 1432q0 57 19.5 101t53.5 73.5t77 45t90 15.5q49 0 93 -15.5t78 -45t53 -73.5t19 -101t-19 -101.5t-53 -74t-78 -45t-93 -15.5q-47 0 -90 15.5t-77 45t-53.5 74t-19.5 101.5zM238 1432q0 -47 28.5 -72t63.5 -25q37 0 65.5 24.5t28.5 72.5q0 47 -28.5 71.5t-65.5 24.5 q-35 0 -63.5 -24.5t-28.5 -71.5z" />
<glyph unicode="&#x2db;" horiz-adv-x="638" d="M104 -266q0 43 18.5 84t49.5 80q35 43 74 75.5t73 57.5h240q-20 -16 -57 -48t-72 -67q-27 -27 -42 -50.5t-15 -45.5q0 -23 13 -37t48 -14q18 0 44 3t61 13l24 -205q-41 -16 -98 -24.5t-105 -8.5q-137 0 -196.5 50.5t-59.5 136.5z" />
<glyph unicode="&#x2dc;" horiz-adv-x="763" d="M8 1325q12 31 33.5 68t52.5 68.5t70 52t86 20.5q37 0 68.5 -11.5t62.5 -24.5t60.5 -24.5t64.5 -11.5q41 0 67.5 27t42.5 61l150 -98q-12 -31 -33.5 -67.5t-52.5 -68.5t-70 -52.5t-86 -20.5q-37 0 -68.5 11.5t-62.5 24.5t-61.5 24.5t-63.5 11.5q-41 0 -67.5 -26.5 t-42.5 -61.5z" />
<glyph unicode="&#x2dd;" horiz-adv-x="888" d="M80 1286l246 350l178 -143l-287 -311zM494 1286l245 350l179 -143l-287 -311z" />
<glyph unicode="&#x37e;" horiz-adv-x="503" d="M61 889q0 92 58.5 140t132.5 48t132 -48t58 -140t-58 -140.5t-132 -48.5t-132.5 48.5t-58.5 140.5zM35 -274q47 135 65.5 253.5t18.5 196.5q0 12 -1 31.5t-2 40t-2 39t-1 24.5h319q4 -49 5 -69.5t1 -34.5q0 -61 -11 -130t-31.5 -138.5t-51.5 -139t-70 -133.5z" />
<glyph unicode="&#x384;" horiz-adv-x="917" d="M260 1307l260 370l193 -147l-297 -338z" />
<glyph unicode="&#x385;" horiz-adv-x="1259" d="M145 1386q0 72 44 112t108 40q61 0 106.5 -40t45.5 -112q0 -70 -45.5 -109.5t-106.5 -39.5q-63 0 -107.5 39.5t-44.5 109.5zM469 1241l178 432l187 -90l-224 -409zM813 1386q0 72 45 112t107 40q61 0 106 -40t45 -112q0 -70 -45 -109.5t-106 -39.5t-106.5 39.5 t-45.5 109.5z" />
<glyph unicode="&#x386;" horiz-adv-x="1476" d="M20 0q80 229 152 423.5t140.5 367t135 327t138.5 301.5h305q70 -147 137.5 -301.5t136 -327t140 -367t151.5 -423.5h-342q-23 74 -50.5 151.5t-53.5 155.5h-553q-27 -78 -54.5 -155.5t-50.5 -151.5h-332zM530 561h404q-33 92 -63.5 176t-58.5 154t-48.5 123t-32.5 84 q-10 -31 -30.5 -84t-47 -123t-58.5 -154t-65 -176zM12 1010l111 458l249 -69l-161 -441z" />
<glyph unicode="&#x387;" horiz-adv-x="503" d="M61 604q0 92 58.5 140t132.5 48t132 -48t58 -140t-58 -140.5t-132 -48.5t-132.5 48.5t-58.5 140.5z" />
<glyph unicode="&#x388;" horiz-adv-x="1529" d="M453 0v1419h958v-268h-639v-279h568v-262h-568v-342h686v-268h-1005zM-6 1010l111 458l249 -69l-161 -441z" />
<glyph unicode="&#x389;" horiz-adv-x="1792" d="M453 0v1419h319v-542h537v542h319v-1419h-319v602h-537v-602h-319zM-6 1010l111 458l249 -69l-161 -441z" />
<glyph unicode="&#x38a;" horiz-adv-x="935" d="M453 0v1419h319v-1419h-319zM-6 1010l111 458l249 -69l-161 -441z" />
<glyph unicode="&#x38c;" horiz-adv-x="1820" d="M305 711q0 182 57.5 320t155 232.5t225.5 141.5t269 47q145 0 274 -47t225.5 -141.5t152 -232.5t55.5 -320t-54.5 -320.5t-148.5 -231.5t-224.5 -140.5t-279.5 -47.5q-145 0 -274 47.5t-225.5 140.5t-152 231.5t-55.5 320.5zM635 711q0 -104 25.5 -188.5t74 -145t118 -93 t159.5 -32.5q88 0 158.5 32.5t119 93t74 144.5t25.5 189q0 104 -25.5 189t-74 145.5t-119 93t-158.5 32.5q-90 0 -159.5 -33.5t-118 -94t-74 -145.5t-25.5 -187zM-6 1010l111 458l249 -69l-161 -441z" />
<glyph unicode="&#x38e;" horiz-adv-x="1763" d="M420 1419h371q66 -147 141.5 -292.5t161.5 -290.5q86 145 164 290.5t143 292.5h352q-117 -229 -241.5 -444t-263.5 -432v-543h-320v539q-139 217 -265 434t-243 446zM-6 1010l111 458l249 -69l-161 -441z" />
<glyph unicode="&#x38f;" horiz-adv-x="1783" d="M262 0v264h244q-211 221 -211 514q0 162 52 288t144 212t218 130t274 44q147 0 273 -44t218 -130t144.5 -212t52.5 -288q0 -295 -213 -514h244v-264h-621v238q53 45 100.5 99t83 118.5t56 142.5t20.5 170q0 199 -96 303.5t-262 104.5t-262.5 -104.5t-96.5 -303.5 q0 -92 20.5 -170t55.5 -142.5t82 -118.5t100 -99v-238h-620zM-6 1010l111 458l249 -69l-161 -441z" />
<glyph unicode="&#x390;" horiz-adv-x="632" d="M139 330v747h305v-715q0 -72 28 -108.5t120 -42.5l-37 -234q-123 0 -203 26t-128 72t-66.5 110.5t-18.5 144.5zM-138 1386q0 72 44 112t108 40q61 0 106.5 -40t45.5 -112q0 -70 -45.5 -109.5t-106.5 -39.5q-63 0 -107.5 39.5t-44.5 109.5zM186 1241l178 432l187 -90 l-224 -409zM530 1386q0 72 45 112t107 40q61 0 106 -40t45 -112q0 -70 -45 -109.5t-106 -39.5t-106.5 39.5t-45.5 109.5z" />
<glyph unicode="&#x391;" horiz-adv-x="1476" d="M20 0q80 229 152 423.5t140.5 367t135 327t138.5 301.5h305q70 -147 137.5 -301.5t136 -327t140 -367t151.5 -423.5h-342q-23 74 -50.5 151.5t-53.5 155.5h-553q-27 -78 -54.5 -155.5t-50.5 -151.5h-332zM530 561h404q-33 92 -63.5 176t-58.5 154t-48.5 123t-32.5 84 q-10 -31 -30.5 -84t-47 -123t-58.5 -154t-65 -176z" />
<glyph unicode="&#x392;" horiz-adv-x="1376" d="M164 23v1376q98 18 215 27.5t217 9.5q135 0 248.5 -19.5t195.5 -66.5t128 -124t46 -190q0 -170 -163 -268q135 -51 184 -139t49 -199q0 -223 -163 -335.5t-484 -112.5q-117 0 -232.5 7t-240.5 34zM475 252q35 -4 76 -6t90 -2q143 0 231.5 41t88.5 151q0 98 -74 140 t-211 42h-201v-366zM475 862h156q147 0 210.5 38t63.5 122q0 86 -65.5 121t-192.5 35q-41 0 -88 -1t-84 -6v-309z" />
<glyph unicode="&#x393;" horiz-adv-x="1214" d="M164 0v1419h969v-270h-650v-1149h-319z" />
<glyph unicode="&#x394;" horiz-adv-x="1419" d="M20 0q72 225 139.5 413.5t134 357.5t135.5 326.5t146 321.5h267q76 -164 146.5 -322.5t138 -327.5t134 -357.5t138.5 -411.5h-1379zM424 266h565q-88 256 -160.5 461t-123.5 313q-25 -55 -56 -135t-66.5 -180t-75.5 -216t-83 -243z" />
<glyph unicode="&#x395;" horiz-adv-x="1241" d="M164 0v1419h958v-268h-639v-279h568v-262h-568v-342h686v-268h-1005z" />
<glyph unicode="&#x396;" horiz-adv-x="1249" d="M72 0v190q57 104 140 232.5t173 258.5t183.5 252t172.5 218h-637v268h1061v-221q-66 -68 -155.5 -175.5t-186 -234t-190.5 -262t-168 -258.5h723v-268h-1116z" />
<glyph unicode="&#x397;" horiz-adv-x="1503" d="M164 0v1419h319v-542h537v542h319v-1419h-319v602h-537v-602h-319z" />
<glyph unicode="&#x398;" horiz-adv-x="1617" d="M102 711q0 182 57.5 320t155 232.5t225.5 141.5t269 47q145 0 274 -47t225.5 -141.5t152 -232.5t55.5 -320t-54.5 -320.5t-148.5 -231.5t-224.5 -140.5t-279.5 -47.5q-145 0 -274 47.5t-225.5 140.5t-152 231.5t-55.5 320.5zM432 711q0 -104 25.5 -188.5t74 -145t118 -93 t159.5 -32.5q88 0 158.5 32.5t119 93t74 144.5t25.5 189q0 104 -25.5 189t-74 145.5t-119 93t-158.5 32.5q-90 0 -159.5 -33.5t-118 -94t-74 -145.5t-25.5 -187zM582 586v254h456v-254h-456z" />
<glyph unicode="&#x399;" horiz-adv-x="647" d="M164 0v1419h319v-1419h-319z" />
<glyph unicode="&#x39a;" horiz-adv-x="1400" d="M164 0v1419h319v-536q125 131 251 273t235 263h379q-145 -172 -292 -331.5t-308 -321.5q170 -141 328.5 -335.5t303.5 -430.5h-379q-43 70 -101 150.5t-126.5 161.5t-142.5 156t-148 132v-600h-319z" />
<glyph unicode="&#x39b;" horiz-adv-x="1478" d="M20 0q45 135 107.5 307t136.5 360.5t156 381t166 370.5h307q84 -178 165 -371.5t154.5 -381t136 -359.5t109.5 -307h-352q-41 123 -89 265.5t-98.5 283.5t-98.5 270t-87 223q-41 -94 -89 -223t-97 -270t-97.5 -283.5t-89.5 -265.5h-340z" />
<glyph unicode="&#x39c;" horiz-adv-x="1837" d="M123 0q8 168 19.5 358.5t24.5 380t30.5 364.5t38.5 316h305q37 -68 85 -167t100 -214.5t103.5 -236.5t96.5 -228q45 106 96 227.5t103.5 237t100.5 215t85 166.5h291q20 -141 37.5 -316t30.5 -364.5t24.5 -380t19.5 -358.5h-311q-6 207 -16.5 450.5t-30.5 491.5 q-37 -86 -82 -190.5t-89 -209t-85 -199.5t-70 -163h-223q-29 68 -70 163t-85 199.5t-89 209t-82 190.5q-20 -248 -30.5 -491.5t-16.5 -450.5h-311z" />
<glyph unicode="&#x39d;" horiz-adv-x="1548" d="M164 0v1419h260q68 -68 149.5 -166t166.5 -209.5t169 -231.5t158 -230v837h317v-1419h-268q-137 244 -297 481.5t-340 448.5v-930h-315z" />
<glyph unicode="&#x39e;" horiz-adv-x="1142" d="M72 0v272h999v-272h-999zM72 1147v272h999v-272h-999zM160 608v266h823v-266h-823z" />
<glyph unicode="&#x39f;" horiz-adv-x="1617" d="M102 711q0 182 57.5 320t155 232.5t225.5 141.5t269 47q145 0 274 -47t225.5 -141.5t152 -232.5t55.5 -320t-54.5 -320.5t-148.5 -231.5t-224.5 -140.5t-279.5 -47.5q-145 0 -274 47.5t-225.5 140.5t-152 231.5t-55.5 320.5zM432 711q0 -104 25.5 -188.5t74 -145t118 -93 t159.5 -32.5q88 0 158.5 32.5t119 93t74 144.5t25.5 189q0 104 -25.5 189t-74 145.5t-119 93t-158.5 32.5q-90 0 -159.5 -33.5t-118 -94t-74 -145.5t-25.5 -187z" />
<glyph unicode="&#x3a0;" horiz-adv-x="1495" d="M164 0v1419h1167v-1419h-319v1149h-529v-1149h-319z" />
<glyph unicode="&#x3a1;" horiz-adv-x="1318" d="M164 0v1399q104 20 221 28.5t205 8.5q317 0 487 -112t170 -366q0 -256 -172 -369.5t-491 -113.5h-101v-475h-319zM483 748h101q166 0 250 45t84 168q0 59 -22 98t-61.5 62.5t-97 32.5t-127.5 9q-35 0 -68.5 -2t-58.5 -4v-409z" />
<glyph unicode="&#x3a3;" horiz-adv-x="1218" d="M63 0v221q98 117 215 245t228 251q-47 63 -102.5 130.5t-110.5 132t-106.5 125t-92.5 107.5v207h1043v-268h-619q86 -104 178 -217t170 -217q-31 -37 -85 -95.5t-113.5 -123t-114.5 -126t-90 -104.5h674v-268h-1074z" />
<glyph unicode="&#x3a4;" horiz-adv-x="1257" d="M41 1147v272h1176v-272h-429v-1147h-319v1147h-428z" />
<glyph unicode="&#x3a5;" horiz-adv-x="1353" d="M10 1419h371q66 -147 141.5 -292.5t161.5 -290.5q86 145 164 290.5t143 292.5h352q-117 -229 -241.5 -444t-263.5 -432v-543h-320v539q-139 217 -265 434t-243 446z" />
<glyph unicode="&#x3a6;" horiz-adv-x="1781" d="M94 752q0 106 39 208.5t118 185.5t199.5 138t284.5 68v159h312v-159q164 -12 284.5 -67.5t199.5 -138.5t118 -185.5t39 -208.5q0 -109 -39 -210.5t-118 -182t-200 -132t-284 -59.5v-168h-312v168q-164 8 -284.5 59.5t-199.5 132t-118 182t-39 210.5zM412 756 q0 -63 20.5 -119.5t60 -99.5t100 -70t142.5 -33v651q-82 -8 -143.5 -36.5t-101 -72.5t-59 -100.5t-19.5 -119.5zM1047 434q82 6 142 33t100 70t60.5 99t20.5 120q0 63 -19.5 119.5t-59.5 100.5t-101.5 72.5t-142.5 36.5v-651z" />
<glyph unicode="&#x3a7;" horiz-adv-x="1382" d="M20 0q90 166 210 348t268 387l-457 684h387l277 -442l270 442h364l-450 -688q172 -223 288.5 -412.5t184.5 -318.5h-383q-59 119 -130 240.5t-163 248.5q-29 -37 -73 -102t-88 -139t-83 -141.5t-57 -106.5h-365z" />
<glyph unicode="&#x3a8;" horiz-adv-x="1730" d="M133 928v491h309v-454q0 -184 68 -270.5t201 -98.5v823h309v-823q133 12 200.5 98t67.5 271v454h309v-491q0 -127 -34.5 -232.5t-106.5 -182.5t-181.5 -122t-258.5 -53v-338h-301v338q-150 8 -259.5 53t-181 122t-106.5 182.5t-35 232.5z" />
<glyph unicode="&#x3a9;" horiz-adv-x="1603" d="M82 0v264h244q-211 221 -211 514q0 162 52 288t144 212t218 130t274 44q147 0 273 -44t218 -130t144.5 -212t52.5 -288q0 -295 -213 -514h244v-264h-621v238q53 45 100.5 99t83 118.5t56 142.5t20.5 170q0 199 -96 303.5t-262 104.5t-262.5 -104.5t-96.5 -303.5 q0 -92 20.5 -170t55.5 -142.5t82 -118.5t100 -99v-238h-620z" />
<glyph unicode="&#x3aa;" horiz-adv-x="647" d="M164 0v1419h319v-1419h-319zM-57 1731q0 72 47 113.5t110 41.5t110.5 -42t47.5 -113q0 -72 -47 -114t-111 -42q-63 0 -110 42t-47 114zM399 1731q0 72 47.5 113.5t110.5 41.5t110.5 -42t47.5 -113q0 -72 -47 -114t-111 -42q-63 0 -110.5 42t-47.5 114z" />
<glyph unicode="&#x3ab;" horiz-adv-x="1353" d="M10 1419h371q66 -147 141.5 -292.5t161.5 -290.5q86 145 164 290.5t143 292.5h352q-117 -229 -241.5 -444t-263.5 -432v-543h-320v539q-139 217 -265 434t-243 446zM277 1731q0 72 47 113.5t110 41.5t110.5 -42t47.5 -113q0 -72 -47 -114t-111 -42q-63 0 -110 42t-47 114 zM733 1731q0 72 47.5 113.5t110.5 41.5t110.5 -42t47.5 -113q0 -72 -47 -114t-111 -42q-63 0 -110.5 42t-47.5 114z" />
<glyph unicode="&#x3ac;" horiz-adv-x="1265" d="M92 539q0 125 38 228t109.5 178t174 116t231.5 41q113 0 230.5 -18.5t201.5 -43.5v-634q0 -51 8.5 -83t26.5 -51.5t49 -27.5t74 -13l-41 -254q-113 0 -188.5 27t-124.5 76q-43 -33 -122 -68t-190 -35q-229 0 -353 149t-124 413zM401 530q0 -147 56.5 -222t154.5 -75 q53 0 96.5 14.5t77.5 37.5q-12 70 -12 151v395q-27 4 -53.5 7.5t-73.5 3.5q-117 0 -181.5 -85.5t-64.5 -226.5zM485 1307l260 370l193 -147l-297 -338z" />
<glyph unicode="&#x3ad;" horiz-adv-x="1054" d="M76 313q0 72 37 138.5t120 111.5q-59 35 -90.5 88.5t-31.5 120.5q0 82 35.5 144.5t99 104.5t152.5 63.5t196 21.5q49 0 101.5 -5t100.5 -14.5t86 -20.5t60 -22l-49 -227q-70 29 -145.5 39t-135.5 10q-78 0 -130 -23.5t-52 -76.5q0 -35 13.5 -55.5t35 -30.5t47 -13 t47.5 -3h207v-224h-211q-33 0 -63.5 -4t-54 -15t-38 -32.5t-14.5 -58.5q0 -59 47.5 -86t149.5 -27q111 0 205 20.5t137 36.5l66 -229q-47 -23 -163 -48.5t-282 -25.5q-78 0 -163 13.5t-155.5 51.5t-117.5 104.5t-47 172.5zM401 1307l260 370l193 -147l-297 -338z" />
<glyph unicode="&#x3ae;" horiz-adv-x="1206" d="M143 0v1040q78 23 201 42.5t258 19.5q137 0 228.5 -36t144.5 -101.5t75.5 -155.5t22.5 -201v-987h-305v950q0 147 -39 209t-145 62q-33 0 -70 -3t-65 -8v-831h-306zM444 1307l260 370l193 -147l-297 -338z" />
<glyph unicode="&#x3af;" horiz-adv-x="632" d="M139 330v747h305v-715q0 -72 28 -108.5t120 -42.5l-37 -234q-123 0 -203 26t-128 72t-66.5 110.5t-18.5 144.5zM141 1307l260 370l193 -147l-297 -338z" />
<glyph unicode="&#x3b0;" horiz-adv-x="1214" d="M133 465v612h305v-577q0 -141 36 -204t134 -63t133 62.5t35 204.5v577h305v-612q0 -256 -117.5 -375t-355.5 -119t-356.5 119t-118.5 375zM145 1386q0 72 44 112t108 40q61 0 106.5 -40t45.5 -112q0 -70 -45.5 -109.5t-106.5 -39.5q-63 0 -107.5 39.5t-44.5 109.5z M469 1241l178 432l187 -90l-224 -409zM813 1386q0 72 45 112t107 40q61 0 106 -40t45 -112q0 -70 -45 -109.5t-106 -39.5t-106.5 39.5t-45.5 109.5z" />
<glyph unicode="&#x3b1;" horiz-adv-x="1265" d="M92 539q0 125 38 228t109.5 178t174 116t231.5 41q113 0 230.5 -18.5t201.5 -43.5v-634q0 -51 8.5 -83t26.5 -51.5t49 -27.5t74 -13l-41 -254q-113 0 -188.5 27t-124.5 76q-43 -33 -122 -68t-190 -35q-229 0 -353 149t-124 413zM401 530q0 -147 56.5 -222t154.5 -75 q53 0 96.5 14.5t77.5 37.5q-12 70 -12 151v395q-27 4 -53.5 7.5t-73.5 3.5q-117 0 -181.5 -85.5t-64.5 -226.5z" />
<glyph unicode="&#x3b2;" horiz-adv-x="1304" d="M143 -381v1483q0 109 32 199t93.5 154.5t153.5 99t215 34.5q121 0 210 -30.5t148.5 -83t89 -123t29.5 -152.5q0 -111 -41 -189.5t-137 -131.5q156 -61 218.5 -168t62.5 -244q0 -131 -39 -223t-109 -151.5t-167 -87.5t-212 -28q-129 0 -241 46v-404h-306zM449 291 q100 -51 221 -51q104 0 169.5 57t65.5 172q0 106 -60.5 172t-209.5 66h-39v245h25q39 0 73.5 10.5t60 33t41 61.5t15.5 94q0 70 -43 121t-121 51q-199 0 -198 -225v-807z" />
<glyph unicode="&#x3b3;" horiz-adv-x="1140" d="M16 1077h324q23 -68 50.5 -159t56 -191t55 -201.5t47.5 -189.5q33 70 68.5 163t67.5 194.5t57.5 201.5t41.5 182h316q-74 -317 -194 -582.5t-257 -504.5q18 -109 32.5 -203t25.5 -166h-306q-31 209 -73.5 398.5t-93 367.5t-106 348t-112.5 342z" />
<glyph unicode="&#x3b4;" horiz-adv-x="1243" d="M92 500q0 160 83 285.5t226 199.5q-66 53 -105.5 119.5t-39.5 159.5q0 68 25.5 126t77 103t129 70.5t182.5 25.5q63 0 114.5 -5t94.5 -14t82.5 -23.5t80.5 -30.5l-65 -232q-61 27 -127 46.5t-162 19.5q-68 0 -97.5 -21.5t-29.5 -68.5q0 -35 28.5 -65t73 -60.5t95.5 -61.5 t98 -63q66 -47 120 -96.5t93 -107.5t60.5 -129t21.5 -159q0 -127 -37 -228.5t-106.5 -172t-167 -108.5t-217.5 -38q-119 0 -216.5 36t-167 103.5t-108.5 166t-39 223.5zM403 522q0 -141 57.5 -215t162.5 -74q104 0 160.5 74t56.5 215q0 199 -230 332q-104 -43 -155.5 -133 t-51.5 -199z" />
<glyph unicode="&#x3b5;" horiz-adv-x="1054" d="M76 313q0 72 37 138.5t120 111.5q-59 35 -90.5 88.5t-31.5 120.5q0 82 35.5 144.5t99 104.5t152.5 63.5t196 21.5q49 0 101.5 -5t100.5 -14.5t86 -20.5t60 -22l-49 -227q-70 29 -145.5 39t-135.5 10q-78 0 -130 -23.5t-52 -76.5q0 -35 13.5 -55.5t35 -30.5t47 -13 t47.5 -3h207v-224h-211q-33 0 -63.5 -4t-54 -15t-38 -32.5t-14.5 -58.5q0 -59 47.5 -86t149.5 -27q111 0 205 20.5t137 36.5l66 -229q-47 -23 -163 -48.5t-282 -25.5q-78 0 -163 13.5t-155.5 51.5t-117.5 104.5t-47 172.5z" />
<glyph unicode="&#x3b6;" horiz-adv-x="1024" d="M123 502q0 129 50 247.5t125 223t159 192.5t151 156h-432v254h821v-225q-66 -59 -162 -145.5t-185 -193t-152.5 -230.5t-63.5 -257q0 -47 11.5 -85t39 -69.5t73.5 -56t116 -45.5q102 -31 171.5 -63.5t111.5 -74.5t59.5 -94t17.5 -120q0 -84 -32.5 -159.5t-81.5 -147.5 l-258 88q33 59 51 99t18 79q0 27 -8 48.5t-30.5 40t-61.5 34.5t-103 33q-96 27 -171.5 62.5t-128 91t-79 132t-26.5 185.5z" />
<glyph unicode="&#x3b7;" horiz-adv-x="1206" d="M143 0v1040q78 23 201 42.5t258 19.5q137 0 228.5 -36t144.5 -101.5t75.5 -155.5t22.5 -201v-987h-305v950q0 147 -39 209t-145 62q-33 0 -70 -3t-65 -8v-831h-306z" />
<glyph unicode="&#x3b8;" horiz-adv-x="1259" d="M98 782q0 408 142.5 607.5t390.5 199.5t389 -199.5t141 -607.5q0 -410 -141 -610.5t-389 -200.5t-390.5 200.5t-142.5 610.5zM403 655q4 -199 60.5 -310.5t167.5 -111.5t165 112t58 310h-451zM403 909h451q-4 199 -58.5 308.5t-164.5 109.5q-111 0 -167.5 -109.5 t-60.5 -308.5z" />
<glyph unicode="&#x3b9;" horiz-adv-x="632" d="M139 330v747h305v-715q0 -72 28 -108.5t120 -42.5l-37 -234q-123 0 -203 26t-128 72t-66.5 110.5t-18.5 144.5z" />
<glyph unicode="&#x3ba;" horiz-adv-x="1191" d="M143 0v1077h306v-403q45 49 93 103t93 108.5t86 103.5t72 88h362q-45 -55 -102.5 -120.5t-119 -131t-118.5 -128t-102 -107.5q61 -59 127.5 -133t128 -153t114 -157.5t88.5 -146.5h-350q-33 53 -76 115.5t-92 124t-101 119t-103 100.5v-459h-306z" />
<glyph unicode="&#x3bb;" horiz-adv-x="1120" d="M23 0q92 317 199.5 591.5t211.5 479.5q-25 63 -46 111.5t-46 81t-57.5 49t-79.5 16.5q-27 0 -53.5 -4t-59.5 -16l-53 245q39 12 92 23.5t125 11.5q70 0 128 -14t106.5 -47t89.5 -87.5t77 -131.5q47 -100 94.5 -216t91.5 -236t84 -240.5t74.5 -232.5t63.5 -210t49 -174 h-326q-20 80 -46.5 180.5t-56.5 203.5t-58.5 199.5t-55.5 170.5q-29 -74 -61.5 -170.5t-64 -199.5t-60.5 -203.5t-49 -180.5h-313z" />
<glyph unicode="&#x3bc;" horiz-adv-x="1216" d="M143 -340v1417h306v-577q0 -78 11 -129.5t34.5 -81t58.5 -41.5t82 -12q33 0 68.5 3t64.5 7v831h305v-1040q-80 -23 -191.5 -40t-240.5 -17q-53 0 -108.5 10t-94.5 28q4 -41 7.5 -82.5t3.5 -117.5v-158h-306z" />
<glyph unicode="&#x3bd;" horiz-adv-x="1126" d="M20 1077h324q20 -80 48 -173t57.5 -188t59.5 -185.5t58 -163.5q27 74 57.5 164t60.5 185t57.5 188t48.5 173h315q-96 -324 -203.5 -598t-212.5 -479h-254q-104 205 -212 479t-204 598z" />
<glyph unicode="&#x3be;" horiz-adv-x="1138" d="M100 469q0 76 20.5 135.5t57.5 106.5t86 80.5t105 56.5q-104 61 -147.5 147t-43.5 193q0 90 35 164.5t99.5 127t155.5 81t202 28.5t198.5 -20.5t132.5 -36.5l-57 -240q-66 25 -123 35t-123 10q-121 0 -170 -54t-49 -132q0 -100 69.5 -142t174.5 -42h201v-254h-189 q-39 0 -94 -5.5t-106.5 -27t-87 -65.5t-35.5 -119q0 -55 17 -92t49 -62t79 -41t107 -33q100 -29 169.5 -62.5t111.5 -74.5t60.5 -94t18.5 -121q0 -86 -33 -160.5t-82 -146.5l-258 88q33 59 51.5 99t18.5 79q0 53 -41 89t-162 67q-102 27 -180 62.5t-131 86.5t-80 122 t-27 167z" />
<glyph unicode="&#x3bf;" horiz-adv-x="1243" d="M92 541q0 127 40 231.5t110.5 178t168 114.5t212.5 41q117 0 214 -41t166.5 -114.5t108.5 -178t39 -231.5t-37 -232.5t-106.5 -180.5t-167 -116t-217.5 -41q-119 0 -216.5 41t-167 116t-108.5 180.5t-39 232.5zM403 541q0 -141 57.5 -224.5t162.5 -83.5q104 0 160.5 83 t56.5 225q0 141 -56.5 222t-160.5 81t-162 -81t-58 -222z" />
<glyph unicode="&#x3c0;" horiz-adv-x="1214" d="M143 0v1077h928v-1077h-305v823h-317v-823h-306z" />
<glyph unicode="&#x3c1;" horiz-adv-x="1253" d="M143 -379v979q0 113 34 206t97.5 158.5t154.5 101.5t206 36q262 0 394 -150.5t132 -412.5q0 -125 -32.5 -227.5t-96 -176.5t-154 -114.5t-204.5 -40.5q-74 0 -129.5 14t-95.5 37v-410h-306zM449 276q29 -16 71.5 -27t95.5 -11q109 0 171.5 68.5t62.5 234.5 q0 158 -49 229.5t-156 71.5q-39 0 -74.5 -14.5t-62.5 -44t-43 -77t-16 -114.5v-316z" />
<glyph unicode="&#x3c2;" horiz-adv-x="1024" d="M92 543q0 121 38 224t109.5 178t174 118t233.5 43q86 0 159 -15.5t140 -43.5l-67 -244q-43 16 -93.5 28.5t-113.5 12.5q-135 0 -202 -78t-67 -215q0 -61 10.5 -107.5t34 -80t63.5 -58t99 -41.5q98 -29 165 -61.5t107 -74.5t57 -94t17 -118q0 -84 -32.5 -159.5 t-81.5 -147.5l-258 88q33 59 51 99t18 79q0 25 -7 46.5t-28.5 40t-58.5 34.5t-94 33q-84 25 -152.5 61.5t-118 97t-76 146.5t-26.5 209z" />
<glyph unicode="&#x3c3;" horiz-adv-x="1292" d="M92 530q0 131 42 233.5t119 172.5t185.5 105.5t239.5 35.5h594v-254h-246q66 -70 91.5 -160t25.5 -169q0 -115 -37 -210.5t-104.5 -165t-164 -108.5t-214.5 -39q-119 0 -216.5 40t-167 113t-108.5 176t-39 230zM403 530q0 -141 57.5 -219t162.5 -78q104 0 158.5 80 t54.5 199q0 100 -29 182t-88 129h-41q-121 0 -198 -68.5t-77 -224.5z" />
<glyph unicode="&#x3c4;" horiz-adv-x="989" d="M20 823v254h908v-254h-326v-413q0 -96 24.5 -136.5t100.5 -40.5q39 0 69.5 3.5t69.5 11.5l27 -242q-49 -14 -102.5 -22.5t-122.5 -8.5q-117 0 -188.5 33t-112.5 92.5t-55.5 144.5t-14.5 189v389h-277z" />
<glyph unicode="&#x3c5;" horiz-adv-x="1214" d="M133 465v612h305v-577q0 -141 36 -204t134 -63t133 62.5t35 204.5v577h305v-612q0 -256 -117.5 -375t-355.5 -119t-356.5 119t-118.5 375z" />
<glyph unicode="&#x3c6;" horiz-adv-x="1617" d="M92 541q0 123 47 226t139.5 179t225.5 118t305 42t305 -42t225.5 -118t139.5 -179t47 -226q0 -109 -37 -204t-108.5 -168t-178 -122t-246.5 -65v-361h-297v361q-139 16 -244.5 65t-177 122t-108.5 168t-37 204zM399 541q0 -127 64.5 -205t195.5 -98v602 q-131 -20 -195.5 -97t-64.5 -202zM956 238q133 20 198 98t65 205q0 125 -64.5 201.5t-198.5 97.5v-602z" />
<glyph unicode="&#x3c7;" horiz-adv-x="1134" d="M20 0q25 51 68 120.5t93 144.5t105.5 149.5t108.5 140.5q-92 129 -184 261t-182 261h329l213 -327l213 327h316l-369 -518q123 -154 223.5 -299t159.5 -260h-328l-41 77q-25 46 -55.5 96t-64 100.5t-66.5 91.5q-31 -39 -62.5 -86.5t-60 -95.5t-56.5 -95t-48 -88h-312z " />
<glyph unicode="&#x3c8;" horiz-adv-x="1667" d="M133 555v522h301v-508q0 -147 63.5 -234t186.5 -97v839h297v-839q123 10 187.5 97t64.5 234v508h301v-522q0 -111 -29.5 -208t-95.5 -174t-171 -127t-257 -66v-359h-297v359q-152 16 -256 67t-169.5 127t-95.5 173t-30 208z" />
<glyph unicode="&#x3c9;" horiz-adv-x="1724" d="M98 516q0 156 55.5 310.5t170.5 279.5l249 -86q-92 -125 -129.5 -245t-37.5 -245q0 -141 35.5 -219t121.5 -78q92 0 120 75t28 200v352h303v-352q0 -125 27.5 -200t119.5 -75q86 0 122 78t36 219q0 125 -38 245t-130 245l250 86q115 -125 170 -279.5t55 -310.5 q0 -147 -32.5 -249.5t-92 -166t-140.5 -92t-179 -28.5q-123 0 -196 51t-124 131q-51 -80 -123.5 -131t-195.5 -51q-98 0 -179 28.5t-140.5 92t-92.5 166t-33 249.5z" />
<glyph unicode="&#x3ca;" horiz-adv-x="632" d="M139 330v747h305v-715q0 -72 28 -108.5t120 -42.5l-37 -234q-123 0 -203 26t-128 72t-66.5 110.5t-18.5 144.5zM-78 1389q0 72 47 113.5t110 41.5t110.5 -42t47.5 -113q0 -72 -47 -114t-111 -42q-63 0 -110 42t-47 114zM378 1389q0 72 47.5 113.5t110.5 41.5t110.5 -42 t47.5 -113q0 -72 -47 -114t-111 -42q-63 0 -110.5 42t-47.5 114z" />
<glyph unicode="&#x3cb;" horiz-adv-x="1214" d="M133 465v612h305v-577q0 -141 36 -204t134 -63t133 62.5t35 204.5v577h305v-612q0 -256 -117.5 -375t-355.5 -119t-356.5 119t-118.5 375zM221 1389q0 72 47 113.5t110 41.5t110.5 -42t47.5 -113q0 -72 -47 -114t-111 -42q-63 0 -110 42t-47 114zM677 1389 q0 72 47.5 113.5t110.5 41.5t110.5 -42t47.5 -113q0 -72 -47 -114t-111 -42q-63 0 -110.5 42t-47.5 114z" />
<glyph unicode="&#x3cc;" horiz-adv-x="1243" d="M92 541q0 127 40 231.5t110.5 178t168 114.5t212.5 41q117 0 214 -41t166.5 -114.5t108.5 -178t39 -231.5t-37 -232.5t-106.5 -180.5t-167 -116t-217.5 -41q-119 0 -216.5 41t-167 116t-108.5 180.5t-39 232.5zM403 541q0 -141 57.5 -224.5t162.5 -83.5q104 0 160.5 83 t56.5 225q0 141 -56.5 222t-160.5 81t-162 -81t-58 -222zM438 1307l260 370l193 -147l-297 -338z" />
<glyph unicode="&#x3cd;" horiz-adv-x="1214" d="M133 465v612h305v-577q0 -141 36 -204t134 -63t133 62.5t35 204.5v577h305v-612q0 -256 -117.5 -375t-355.5 -119t-356.5 119t-118.5 375zM459 1307l260 370l193 -147l-297 -338z" />
<glyph unicode="&#x3ce;" horiz-adv-x="1724" d="M98 516q0 156 55.5 310.5t170.5 279.5l249 -86q-92 -125 -129.5 -245t-37.5 -245q0 -141 35.5 -219t121.5 -78q92 0 120 75t28 200v352h303v-352q0 -125 27.5 -200t119.5 -75q86 0 122 78t36 219q0 125 -38 245t-130 245l250 86q115 -125 170 -279.5t55 -310.5 q0 -147 -32.5 -249.5t-92 -166t-140.5 -92t-179 -28.5q-123 0 -196 51t-124 131q-51 -80 -123.5 -131t-195.5 -51q-98 0 -179 28.5t-140.5 92t-92.5 166t-33 249.5zM672 1307l260 370l193 -147l-297 -338z" />
<glyph unicode="&#x3d0;" horiz-adv-x="1304" d="M143 -381v1483q0 109 32 199t93.5 154.5t153.5 99t215 34.5q121 0 210 -30.5t148.5 -83t89 -123t29.5 -152.5q0 -111 -41 -189.5t-137 -131.5q156 -61 218.5 -168t62.5 -244q0 -131 -39 -223t-109 -151.5t-167 -87.5t-212 -28q-129 0 -241 46v-404h-306zM449 291 q100 -51 221 -51q104 0 169.5 57t65.5 172q0 106 -60.5 172t-209.5 66h-39v245h25q39 0 73.5 10.5t60 33t41 61.5t15.5 94q0 70 -43 121t-121 51q-199 0 -198 -225v-807z" />
<glyph unicode="&#x3d1;" horiz-adv-x="1259" d="M98 782q0 408 142.5 607.5t390.5 199.5t389 -199.5t141 -607.5q0 -410 -141 -610.5t-389 -200.5t-390.5 200.5t-142.5 610.5zM403 655q4 -199 60.5 -310.5t167.5 -111.5t165 112t58 310h-451zM403 909h451q-4 199 -58.5 308.5t-164.5 109.5q-111 0 -167.5 -109.5 t-60.5 -308.5z" />
<glyph unicode="&#x3d2;" horiz-adv-x="1353" d="M10 1419h371q66 -147 141.5 -292.5t161.5 -290.5q86 145 164 290.5t143 292.5h352q-117 -229 -241.5 -444t-263.5 -432v-543h-320v539q-139 217 -265 434t-243 446z" />
<glyph unicode="&#x3d3;" horiz-adv-x="1353" d="M450 1690l260 370l193 -147l-297 -338zM10 1419h371q66 -147 141.5 -292.5t161.5 -290.5q86 145 164 290.5t143 292.5h352q-117 -229 -241.5 -444t-263.5 -432v-543h-320v539q-139 217 -265 434t-243 446z" />
<glyph unicode="&#x3d4;" horiz-adv-x="1353" d="M291 1731q0 72 47 113.5t110 41.5t110.5 -42t47.5 -113q0 -72 -47 -114t-111 -42q-63 0 -110 42t-47 114zM747 1731q0 72 47.5 113.5t110.5 41.5t110.5 -42t47.5 -113q0 -72 -47 -114t-111 -42q-63 0 -110.5 42t-47.5 114zM10 1419h371q66 -147 141.5 -292.5 t161.5 -290.5q86 145 164 290.5t143 292.5h352q-117 -229 -241.5 -444t-263.5 -432v-543h-320v539q-139 217 -265 434t-243 446z" />
<glyph unicode="&#x3d5;" horiz-adv-x="1617" d="M92 541q0 123 47 226t139.5 179t225.5 118t305 42t305 -42t225.5 -118t139.5 -179t47 -226q0 -109 -37 -204t-108.5 -168t-178 -122t-246.5 -65v-361h-297v361q-139 16 -244.5 65t-177 122t-108.5 168t-37 204zM399 541q0 -127 64.5 -205t195.5 -98v602 q-131 -20 -195.5 -97t-64.5 -202zM956 238q133 20 198 98t65 205q0 125 -64.5 201.5t-198.5 97.5v-602z" />
<glyph unicode="&#x3d6;" horiz-adv-x="1214" d="M143 0v1077h928v-1077h-305v823h-317v-823h-306z" />
<glyph unicode="&#x400;" horiz-adv-x="1241" d="M164 0v1419h958v-268h-639v-279h568v-262h-568v-342h686v-268h-1005zM391 1792l186 172l291 -331l-139 -125z" />
<glyph unicode="&#x401;" horiz-adv-x="1241" d="M164 0v1419h958v-268h-639v-279h568v-262h-568v-342h686v-268h-1005zM252 1737q0 72 47 113.5t110 41.5t110.5 -42t47.5 -113q0 -72 -47 -114t-111 -42q-63 0 -110 42t-47 114zM708 1737q0 72 47.5 113.5t110.5 41.5t110.5 -42t47.5 -113q0 -72 -47 -114t-111 -42 q-63 0 -110.5 42t-47.5 114z" />
<glyph unicode="&#x402;" horiz-adv-x="1667" d="M41 1147v272h1176v-272h-469v-268q20 2 49.5 5t59.5 5t58.5 4t49.5 2q166 0 281.5 -32t189 -93t106.5 -148t33 -198q0 -115 -38 -198t-103.5 -136t-152.5 -78.5t-187 -25.5q-33 0 -76 3t-78 9l10 238q39 -6 94 -7q104 0 166 39t62 152q0 111 -76 160t-250 49 q-20 0 -47 -1t-54.5 -3t-53 -4.5t-43.5 -4.5v-616h-320v1147h-387z" />
<glyph unicode="&#x403;" horiz-adv-x="1214" d="M164 0v1419h969v-270h-650v-1149h-319zM438 1633l291 331l186 -172l-337 -284z" />
<glyph unicode="&#x404;" horiz-adv-x="1404" d="M102 711q0 190 55.5 330.5t152 231.5t225.5 136t278 45q123 0 246 -27.5t239 -89.5l-94 -250q-57 29 -156.5 59t-222.5 30q-166 0 -260 -77t-119 -243h588v-270h-594q25 -166 122 -251t263 -85q68 0 125.5 10t105.5 25.5t87 33t67 29.5l103 -256q-117 -59 -234.5 -90 t-259.5 -31q-147 0 -278 42t-228.5 132.5t-154 229.5t-56.5 336z" />
<glyph unicode="&#x405;" horiz-adv-x="1191" d="M76 80l90 254q63 -35 156.5 -62.5t228.5 -27.5q68 0 112 11t70.5 30.5t36.5 46t10 59.5q0 70 -65.5 116t-225.5 99q-70 25 -139 56.5t-124.5 80t-90.5 117t-35 166.5t37 177t104.5 134.5t164 85t217.5 29.5q143 0 247.5 -30.5t171.5 -67.5l-92 -252q-59 31 -132 54.5 t-175 23.5q-115 0 -165 -32t-50 -97q0 -39 18.5 -66t52 -48.5t78 -38.5t97.5 -36q111 -41 192.5 -81t136 -93t81 -124.5t26.5 -174.5q0 -199 -139.5 -308.5t-419.5 -109.5q-94 0 -170 11.5t-134.5 28t-100 35t-70.5 34.5z" />
<glyph unicode="&#x406;" horiz-adv-x="647" d="M164 0v1419h319v-1419h-319z" />
<glyph unicode="&#x407;" horiz-adv-x="647" d="M164 0v1419h319v-1419h-319zM-57 1717q0 72 47 113.5t110 41.5t110.5 -42t47.5 -113q0 -72 -47 -114t-111 -42q-63 0 -110 42t-47 114zM399 1717q0 72 47.5 113.5t110.5 41.5t110.5 -42t47.5 -113q0 -72 -47 -114t-111 -42q-63 0 -110.5 42t-47.5 114z" />
<glyph unicode="&#x408;" horiz-adv-x="1083" d="M20 84l107 248q59 -35 127 -61.5t147 -26.5q117 0 168.5 57t51.5 193v925h319v-942q0 -104 -23.5 -196.5t-82 -161t-157.5 -108.5t-251 -40q-139 0 -239.5 34t-166.5 79z" />
<glyph unicode="&#x409;" horiz-adv-x="2314" d="M41 250q147 16 227 74.5t121 179.5q51 150 72.5 387t21.5 528h969v-504h104q158 0 282 -24.5t209 -79.5t130 -143t45 -215q0 -236 -171 -351.5t-488 -115.5q-84 0 -202 10t-228 37v1116h-349q-6 -137 -15 -275.5t-32.5 -267.5t-67.5 -242.5t-121 -198.5t-191.5 -136.5 t-280.5 -57.5zM1452 262q23 -2 54.5 -3t72.5 -1q63 0 120.5 8t101.5 29.5t70.5 58.5t26.5 97q0 61 -24.5 100t-69.5 61.5t-110.5 30.5t-147.5 8h-94v-389z" />
<glyph unicode="&#x40a;" horiz-adv-x="2201" d="M164 0v1419h319v-542h537v542h319v-504h105q158 0 281.5 -24.5t208.5 -79.5t130 -143t45 -215q0 -236 -171 -351.5t-488 -115.5q-84 0 -202 10t-228 37v569h-537v-602h-319zM1339 262q23 -2 54.5 -3t72.5 -1q63 0 121 8t102 29.5t70.5 58.5t26.5 97q0 61 -24.5 100 t-69.5 61.5t-110.5 30.5t-147.5 8h-95v-389z" />
<glyph unicode="&#x40b;" horiz-adv-x="1579" d="M41 1147v272h1176v-272h-469v-268q47 6 98 11t94 5q160 0 267.5 -35t172 -98.5t91 -153.5t26.5 -200v-408h-319v408q0 111 -57.5 164t-198.5 53q-43 0 -90.5 -4.5t-83.5 -8.5v-612h-320v1147h-387z" />
<glyph unicode="&#x40c;" horiz-adv-x="1400" d="M164 0v1419h319v-536q125 131 251 273t235 263h379q-145 -172 -292 -331.5t-308 -321.5q170 -141 328.5 -335.5t303.5 -430.5h-379q-43 70 -101 150.5t-126.5 161.5t-142.5 156t-148 132v-600h-319zM608 1633l291 331l186 -172l-337 -284z" />
<glyph unicode="&#x40d;" horiz-adv-x="1548" d="M164 0v1419h317v-837q74 111 158 230.5t169 231t167 210t149 165.5h260v-1419h-315v930q-180 -211 -340 -448.5t-297 -481.5h-268zM522 1792l186 172l291 -331l-139 -125z" />
<glyph unicode="&#x40e;" horiz-adv-x="1335" d="M41 1419h354q33 -80 73 -171t85 -188t91 -194.5t89 -189.5q66 180 125.5 368.5t114.5 374.5h342q-53 -158 -104.5 -295t-100.5 -260t-97 -233.5t-93 -214.5q-59 -135 -125 -222.5t-135.5 -136.5t-141.5 -67.5t-145 -18.5q-70 0 -144.5 13.5t-140.5 38.5l57 256 q100 -37 199 -37q63 0 121.5 28.5t112.5 122.5q-84 131 -161 269.5t-145.5 272.5t-127 258t-103.5 226zM360 1831l211 55q16 -78 54.5 -110.5t89.5 -32.5q53 0 91 29.5t54 111.5l209 -55q-6 -70 -38 -124.5t-80 -91t-109.5 -56t-126.5 -19.5q-66 0 -126.5 19.5t-109.5 57 t-81 92t-38 124.5z" />
<glyph unicode="&#x40f;" horiz-adv-x="1495" d="M164 0v1419h319v-1149h529v1149h319v-1419h-428v-379h-307v379h-432z" />
<glyph unicode="&#x410;" horiz-adv-x="1476" d="M20 0q80 229 152 423.5t140.5 367t135 327t138.5 301.5h305q70 -147 137.5 -301.5t136 -327t140 -367t151.5 -423.5h-342q-23 74 -50.5 151.5t-53.5 155.5h-553q-27 -78 -54.5 -155.5t-50.5 -151.5h-332zM530 561h404q-33 92 -63.5 176t-58.5 154t-48.5 123t-32.5 84 q-10 -31 -30.5 -84t-47 -123t-58.5 -154t-65 -176z" />
<glyph unicode="&#x411;" horiz-adv-x="1331" d="M164 33v1386h942v-270h-637v-234h104q158 0 282 -24.5t209 -79.5t130 -143t45 -215q0 -236 -171 -351.5t-488 -115.5q-86 0 -195.5 10t-220.5 37zM469 262q23 -2 54.5 -3t72.5 -1q63 0 120.5 8t101.5 29.5t70.5 58.5t26.5 97q0 61 -24.5 100t-69.5 61.5t-110.5 30.5 t-147.5 8h-94v-389z" />
<glyph unicode="&#x412;" horiz-adv-x="1376" d="M164 23v1376q98 18 215 27.5t217 9.5q135 0 248.5 -19.5t195.5 -66.5t128 -124t46 -190q0 -170 -163 -268q135 -51 184 -139t49 -199q0 -223 -163 -335.5t-484 -112.5q-117 0 -232.5 7t-240.5 34zM475 252q35 -4 76 -6t90 -2q143 0 231.5 41t88.5 151q0 98 -74 140 t-211 42h-201v-366zM475 862h156q147 0 210.5 38t63.5 122q0 86 -65.5 121t-192.5 35q-41 0 -88 -1t-84 -6v-309z" />
<glyph unicode="&#x413;" horiz-adv-x="1214" d="M164 0v1419h969v-270h-650v-1149h-319z" />
<glyph unicode="&#x414;" horiz-adv-x="1683" d="M41 270h205q76 131 119 260t64.5 262.5t26.5 274.5t5 297v55h938v-1149h243v-649h-307v379h-987v-379h-307v649zM578 270h509v879h-325q-4 -111 -14.5 -227.5t-31 -230t-54 -221.5t-84.5 -200z" />
<glyph unicode="&#x415;" horiz-adv-x="1241" d="M164 0v1419h958v-268h-639v-279h568v-262h-568v-342h686v-268h-1005z" />
<glyph unicode="&#x416;" horiz-adv-x="2013" d="M20 0q59 104 127 208.5t138.5 202t145.5 182.5t151 152q-86 88 -160 172t-140.5 166t-130 165t-128.5 171h385q61 -86 115.5 -157.5t106.5 -139t105 -133t115 -139.5v569h311v-569q61 76 117.5 144.5t110 136t106.5 138t109 150.5h383q-74 -96 -138.5 -180t-130 -164 t-134 -159.5t-150.5 -167.5q166 -154 303 -345.5t256 -402.5h-357q-63 96 -118.5 178t-110.5 158t-114.5 148.5t-131.5 150.5v-635h-311v635q-74 -86 -133.5 -160t-113.5 -147.5t-109.5 -152.5t-118.5 -175h-355z" />
<glyph unicode="&#x417;" horiz-adv-x="1249" d="M51 86l94 250q29 -12 71 -27.5t93 -30t106.5 -24.5t110.5 -10q135 0 218 39t83 135q0 59 -26.5 96t-72.5 56.5t-108.5 26.5t-136.5 7h-192v262h215q55 0 103 8.5t84 29t56.5 53t20.5 81.5q0 70 -55.5 105t-155.5 35q-113 0 -196.5 -26t-159.5 -69l-103 252q82 51 198 83 t263 32q115 0 213 -25.5t170 -76t112 -127t40 -179.5q0 -78 -42 -154.5t-128 -129.5q47 -25 89 -57.5t73.5 -75.5t50 -97.5t18.5 -121.5q0 -227 -160.5 -331t-447.5 -104q-72 0 -142.5 10.5t-135 26t-121 35.5t-99.5 43z" />
<glyph unicode="&#x418;" horiz-adv-x="1548" d="M164 0v1419h317v-837q74 111 158 230.5t169 231t167 210t149 165.5h260v-1419h-315v930q-180 -211 -340 -448.5t-297 -481.5h-268z" />
<glyph unicode="&#x419;" horiz-adv-x="1548" d="M164 0v1419h317v-837q74 111 158 230.5t169 231t167 210t149 165.5h260v-1419h-315v930q-180 -211 -340 -448.5t-297 -481.5h-268zM444 1837l211 55q16 -78 54.5 -110.5t89.5 -32.5q53 0 91 29.5t54 111.5l209 -55q-6 -70 -38 -124.5t-80 -91t-109.5 -56t-126.5 -19.5 q-66 0 -126.5 19.5t-109.5 57t-81 92t-38 124.5z" />
<glyph unicode="&#x41a;" horiz-adv-x="1400" d="M164 0v1419h319v-536q125 131 251 273t235 263h379q-145 -172 -292 -331.5t-308 -321.5q170 -141 328.5 -335.5t303.5 -430.5h-379q-43 70 -101 150.5t-126.5 161.5t-142.5 156t-148 132v-600h-319z" />
<glyph unicode="&#x41b;" horiz-adv-x="1615" d="M41 250q147 16 227 74.5t121 179.5q51 150 72.5 386t21.5 529h969v-1419h-319v1149h-349q-6 -137 -15 -275.5t-32.5 -267.5t-67.5 -241.5t-121 -198.5t-191.5 -137.5t-280.5 -57.5z" />
<glyph unicode="&#x41c;" horiz-adv-x="1837" d="M123 0q8 168 19.5 358.5t24.5 380t30.5 364.5t38.5 316h305q37 -68 85 -167t100 -214.5t103.5 -236.5t96.5 -228q45 106 96 227.5t103.5 237t100.5 215t85 166.5h291q20 -141 37.5 -316t30.5 -364.5t24.5 -380t19.5 -358.5h-311q-6 207 -16.5 450.5t-30.5 491.5 q-37 -86 -82 -190.5t-89 -209t-85 -199.5t-70 -163h-223q-29 68 -70 163t-85 199.5t-89 209t-82 190.5q-20 -248 -30.5 -491.5t-16.5 -450.5h-311z" />
<glyph unicode="&#x41d;" horiz-adv-x="1503" d="M164 0v1419h319v-542h537v542h319v-1419h-319v602h-537v-602h-319z" />
<glyph unicode="&#x41e;" horiz-adv-x="1617" d="M102 711q0 182 57.5 320t155 232.5t225.5 141.5t269 47q145 0 274 -47t225.5 -141.5t152 -232.5t55.5 -320t-54.5 -320.5t-148.5 -231.5t-224.5 -140.5t-279.5 -47.5q-145 0 -274 47.5t-225.5 140.5t-152 231.5t-55.5 320.5zM432 711q0 -104 25.5 -188.5t74 -145t118 -93 t159.5 -32.5q88 0 158.5 32.5t119 93t74 144.5t25.5 189q0 104 -25.5 189t-74 145.5t-119 93t-158.5 32.5q-90 0 -159.5 -33.5t-118 -94t-74 -145.5t-25.5 -187z" />
<glyph unicode="&#x41f;" horiz-adv-x="1495" d="M164 0v1419h1167v-1419h-319v1149h-529v-1149h-319z" />
<glyph unicode="&#x420;" horiz-adv-x="1318" d="M164 0v1399q104 20 221 28.5t205 8.5q317 0 487 -112t170 -366q0 -256 -172 -369.5t-491 -113.5h-101v-475h-319zM483 748h101q166 0 250 45t84 168q0 59 -22 98t-61.5 62.5t-97 32.5t-127.5 9q-35 0 -68.5 -2t-58.5 -4v-409z" />
<glyph unicode="&#x421;" horiz-adv-x="1327" d="M102 711q0 176 55.5 314t152 233.5t229.5 144.5t288 49q90 0 164 -13.5t129.5 -30.5t92 -35.5t53.5 -29.5l-92 -258q-66 35 -153 59.5t-198 24.5q-74 0 -144.5 -24.5t-124.5 -78.5t-87 -140t-33 -209q0 -98 21.5 -183t69.5 -146.5t126 -97.5t189 -36q70 0 125 8t98 19.5 t75.5 26t59.5 26.5l88 -256q-68 -41 -190.5 -74t-284.5 -33q-346 0 -527.5 193t-181.5 547z" />
<glyph unicode="&#x422;" horiz-adv-x="1257" d="M41 1147v272h1176v-272h-429v-1147h-319v1147h-428z" />
<glyph unicode="&#x423;" horiz-adv-x="1335" d="M41 1419h354q33 -80 73 -171t85 -188t91 -194.5t89 -189.5q66 180 125.5 368.5t114.5 374.5h342q-53 -158 -104.5 -295t-100.5 -260t-97 -233.5t-93 -214.5q-59 -135 -125 -222.5t-135.5 -136.5t-141.5 -67.5t-145 -18.5q-70 0 -144.5 13.5t-140.5 38.5l57 256 q100 -37 199 -37q63 0 121.5 28.5t112.5 122.5q-84 131 -161 269.5t-145.5 272.5t-127 258t-103.5 226z" />
<glyph unicode="&#x424;" horiz-adv-x="1781" d="M94 752q0 106 39 208.5t118 185.5t199.5 138t284.5 68v159h312v-159q164 -12 284.5 -67.5t199.5 -138.5t118 -185.5t39 -208.5q0 -109 -39 -210.5t-118 -182t-200 -132t-284 -59.5v-168h-312v168q-164 8 -284.5 59.5t-199.5 132t-118 182t-39 210.5zM412 756 q0 -63 20.5 -119.5t60 -99.5t100 -70t142.5 -33v651q-82 -8 -143.5 -36.5t-101 -72.5t-59 -100.5t-19.5 -119.5zM1047 434q82 6 142 33t100 70t60.5 99t20.5 120q0 63 -19.5 119.5t-59.5 100.5t-101.5 72.5t-142.5 36.5v-651z" />
<glyph unicode="&#x425;" horiz-adv-x="1382" d="M20 0q90 166 210 348t268 387l-457 684h387l277 -442l270 442h364l-450 -688q172 -223 288.5 -412.5t184.5 -318.5h-383q-59 119 -130 240.5t-163 248.5q-29 -37 -73 -102t-88 -139t-83 -141.5t-57 -106.5h-365z" />
<glyph unicode="&#x426;" horiz-adv-x="1617" d="M164 0v1419h319v-1149h529v1149h319v-1149h246v-649h-307v379h-1106z" />
<glyph unicode="&#x427;" horiz-adv-x="1392" d="M82 985v434h319v-418q0 -84 20.5 -136t58.5 -82.5t91.5 -42t116.5 -11.5q49 0 105.5 4t115.5 12v674h320v-1419h-320v475q-70 -8 -135 -12t-125 -4q-129 0 -234.5 23.5t-179 84t-113.5 161.5t-40 257z" />
<glyph unicode="&#x428;" horiz-adv-x="2088" d="M164 0v1419h319v-1149h402v1149h319v-1149h402v1149h319v-1419h-1761z" />
<glyph unicode="&#x429;" horiz-adv-x="2211" d="M164 0v1419h319v-1149h402v1149h319v-1149h402v1149h319v-1149h246v-649h-307v379h-1700z" />
<glyph unicode="&#x42a;" horiz-adv-x="1583" d="M41 1149v270h674v-471q27 2 48 2h44q346 0 515 -118.5t169 -366.5q0 -240 -176 -361.5t-494 -121.5q-88 0 -201.5 12t-224.5 39v1116h-354zM715 254q23 -2 51 -2h70q63 0 122.5 10t104.5 35t71.5 65.5t26.5 102.5q0 63 -26.5 104t-76.5 65.5t-121 35t-159 10.5h-28 q-18 0 -35 -2v-424z" />
<glyph unicode="&#x42b;" horiz-adv-x="1898" d="M164 33v1386h319v-471q23 2 42 2h42q334 0 502 -118.5t168 -366.5q0 -119 -46 -209t-131 -151.5t-207 -92t-271 -30.5q-86 0 -195.5 12t-222.5 39zM483 254q23 -2 52 -2h69q63 0 118.5 10t97.5 35t65.5 65.5t23.5 102.5q0 125 -93 170t-269 45h-29q-18 0 -35 -2v-424z M1415 0v1419h320v-1419h-320z" />
<glyph unicode="&#x42c;" horiz-adv-x="1349" d="M164 33v1386h319v-471q27 2 48 2h44q346 0 514 -118.5t168 -366.5q0 -238 -176 -360.5t-491 -122.5q-88 0 -201.5 12t-224.5 39zM483 254q23 -2 52 -2h69q63 0 122.5 10t105 35t72 65.5t26.5 102.5q0 63 -26.5 104t-77 65.5t-121 35t-158.5 10.5h-29q-18 0 -35 -2v-424z " />
<glyph unicode="&#x42d;" horiz-adv-x="1394" d="M82 92l102 256q29 -12 68 -29.5t87 -33t106.5 -25.5t123.5 -10q164 0 262.5 85t122.5 251h-594v270h588q-25 164 -120 242t-259 78q-121 0 -221 -30t-158 -59l-94 250q117 61 241 89t245 28q150 0 278.5 -45t225 -136t151.5 -231.5t55 -330.5q0 -197 -56 -336 t-153.5 -229.5t-228.5 -132.5t-279 -42q-141 0 -258.5 31t-234.5 90z" />
<glyph unicode="&#x42e;" horiz-adv-x="2213" d="M164 0v1419h319v-545h267q25 141 87 250t152 182.5t202 110.5t234 37q139 0 264.5 -48t218.5 -141.5t148 -232.5t55 -321t-54 -320.5t-148 -231.5t-218 -140.5t-266 -47.5q-129 0 -245.5 40t-208.5 120t-151.5 199t-76.5 274h-260v-604h-319zM1065 711q0 -215 95 -338 t265 -123t263.5 123t93.5 338t-93.5 340t-263.5 125t-265 -125t-95 -340z" />
<glyph unicode="&#x42f;" horiz-adv-x="1411" d="M82 0q37 84 79 166t85 155.5t84 136t76 109.5q-45 20 -89.5 54t-79 81.5t-56 112t-21.5 148.5q0 117 46 204.5t131 147t207 89.5t273 30q86 0 202 -10.5t228 -34.5v-1389h-319v510h-99h-51q-25 0 -59 4q-68 -92 -149 -230.5t-150 -283.5h-338zM489 965q0 -109 77 -150 t229 -41h133v383q-25 2 -54 2h-71q-61 0 -117.5 -9t-99.5 -30.5t-70 -59.5t-27 -95z" />
<glyph unicode="&#x430;" horiz-adv-x="1132" d="M72 332q0 94 37.5 159.5t101 104.5t145.5 56.5t170 17.5q59 0 105.5 -5.5t75.5 -13.5v29q0 78 -47.5 125t-163.5 47q-78 0 -154 -11.5t-131 -31.5l-39 246q27 8 67 17t87 16.5t99 12.5t105 5q135 0 225.5 -31t144.5 -88t76.5 -139t22.5 -182v-635q-66 -14 -182.5 -34 t-281.5 -20q-104 0 -189.5 18.5t-147 60.5t-94 110t-32.5 166zM375 340q0 -72 48 -99.5t132 -27.5q45 0 86 2t66 6v232q-18 4 -55.5 8t-67.5 4q-43 0 -81 -5t-66.5 -19.5t-45 -39t-16.5 -61.5z" />
<glyph unicode="&#x431;" horiz-adv-x="1230" d="M92 653q0 221 43 376t129 258.5t213 162.5t295 94q68 14 136.5 21.5t140.5 23.5l34 -260q-76 -16 -143.5 -22.5t-138.5 -18.5q-61 -10 -123 -30.5t-114 -56.5t-91 -90t-55 -134q133 63 258 63q98 0 182 -32.5t146.5 -98t98.5 -163t36 -226.5q0 -139 -41 -241.5t-112 -171 t-164 -102.5t-199 -34q-285 0 -408 173t-123 509zM406 596q0 -180 50 -272.5t169 -92.5q100 0 153 78t53 209q0 51 -12 99.5t-38.5 85t-65.5 59t-92 22.5t-111.5 -12t-99.5 -45q-4 -29 -5 -65.5t-1 -65.5z" />
<glyph unicode="&#x432;" horiz-adv-x="1224" d="M143 29v1032q39 8 95.5 15t120 13.5t129 9.5t122.5 3q133 0 224.5 -26.5t147.5 -69.5t80.5 -96.5t24.5 -106.5q0 -72 -34.5 -131.5t-87.5 -85.5q29 -12 58.5 -35t54 -54.5t40 -75.5t15.5 -102q0 -66 -26 -127t-87.5 -108t-161.5 -75.5t-248 -28.5q-57 0 -122.5 4t-129 11 t-120 16.5t-95.5 17.5zM449 225q29 -4 76.5 -7t88.5 -3q102 0 159.5 25.5t57.5 93.5q0 66 -52 91.5t-152 25.5h-178v-226zM449 655h172q76 0 123 19.5t47 85.5q0 61 -53.5 83.5t-139.5 22.5q-29 0 -75 -3t-74 -7v-201z" />
<glyph unicode="&#x433;" horiz-adv-x="927" d="M143 0v1077h764v-250h-458v-827h-306z" />
<glyph unicode="&#x434;" horiz-adv-x="1388" d="M41 250h133q57 70 89 173t45.5 219t15.5 230.5t2 204.5h839v-827h183v-557h-261v307h-786v-307h-260v557zM487 250h373v577h-250q-4 -72 -9 -148.5t-18.5 -151t-36 -146.5t-59.5 -131z" />
<glyph unicode="&#x435;" horiz-adv-x="1196" d="M92 530q0 143 44 251t116 179.5t165 108.5t191 37q229 0 362.5 -140.5t133.5 -412.5q0 -27 -2 -58.5t-4 -56.5h-692q10 -94 87.5 -149.5t208.5 -55.5q84 0 165 15.5t132 38.5l41 -248q-25 -12 -65.5 -24.5t-90.5 -21.5t-107.5 -15.5t-114.5 -6.5q-145 0 -253 43 t-178.5 118t-104.5 177t-34 221zM406 647h403q-2 39 -13.5 76t-35 65.5t-59 47t-89.5 18.5q-51 0 -88 -17.5t-61.5 -46t-37.5 -66.5t-19 -77z" />
<glyph unicode="&#x436;" horiz-adv-x="1738" d="M20 0q102 166 211 305t232 270q-129 133 -234.5 261.5t-187.5 240.5h356q53 -76 128 -175t196 -251v426h297v-426q125 150 198.5 251.5t126.5 174.5h353q-76 -117 -178.5 -240.5t-239.5 -258.5q74 -78 132 -147t110.5 -136.5t99.5 -140t98 -154.5h-340q-154 231 -360 487 v-487h-297v487q-104 -139 -198.5 -262t-162.5 -225h-340z" />
<glyph unicode="&#x437;" horiz-adv-x="1013" d="M61 45l56 238q43 -16 132 -39t202 -23q184 0 184 103q0 35 -14.5 56t-38 33.5t-54 16.5t-61.5 4h-240v217h242q74 0 103.5 30t29.5 69t-33.5 70.5t-124.5 31.5q-90 0 -169.5 -16.5t-129.5 -30.5l-53 237q72 27 166 43.5t205 16.5q84 0 164 -15.5t142 -51.5t100 -94 t38 -146q0 -80 -36.5 -136.5t-104.5 -93.5q90 -39 133 -102.5t43 -161.5q0 -92 -39 -154.5t-104.5 -101.5t-149.5 -56.5t-174 -17.5q-53 0 -110.5 5.5t-111.5 14.5t-103.5 23.5t-88.5 30.5z" />
<glyph unicode="&#x438;" horiz-adv-x="1267" d="M143 0v1077h306q0 -102 -1.5 -195.5t-3.5 -169t-4 -132t-2 -86.5q123 180 226.5 323.5t201.5 259.5h258v-1077h-307q0 102 2 203.5t4 187.5t5 150.5t3 95.5q-59 -84 -118.5 -170t-113.5 -169t-102 -159t-85 -139h-269z" />
<glyph unicode="&#x439;" horiz-adv-x="1267" d="M143 0v1077h306q0 -102 -1.5 -195.5t-3.5 -169t-4 -132t-2 -86.5q123 180 226.5 323.5t201.5 259.5h258v-1077h-307q0 102 2 203.5t4 187.5t5 150.5t3 95.5q-59 -84 -118.5 -170t-113.5 -169t-102 -159t-85 -139h-269zM284 1518l211 55q16 -78 54.5 -110.5t89.5 -32.5 q53 0 91 29.5t54 111.5l209 -55q-6 -70 -38 -124.5t-80 -91t-109.5 -56t-126.5 -19.5q-66 0 -126.5 19.5t-109.5 57t-81 92t-38 124.5z" />
<glyph unicode="&#x43a;" horiz-adv-x="1200" d="M143 0v1077h306v-377q45 43 95 94.5t97 101.5t90 97t76 84h371q-41 -43 -101.5 -106.5t-128 -132t-136.5 -136t-130 -120.5q61 -47 131 -117t136.5 -149.5t127 -161.5t103.5 -154h-349q-37 55 -84 115.5t-98 119t-103 109.5t-97 88v-432h-306z" />
<glyph unicode="&#x43b;" horiz-adv-x="1284" d="M20 236q104 20 162 58t86 97q23 51 36 119t19.5 142.5t7.5 152.5t1 149v123h809v-1077h-305v827h-209q-2 -59 -5.5 -125.5t-11.5 -133t-21.5 -130t-33.5 -119.5q-25 -66 -62.5 -122t-96 -101t-141.5 -74.5t-194 -39.5z" />
<glyph unicode="&#x43c;" horiz-adv-x="1558" d="M123 0q4 113 13 254t20.5 287.5t25 286t25.5 249.5h254q88 -143 161.5 -296.5t155.5 -338.5q86 197 168 364t148 271h258q14 -111 27.5 -250t24.5 -285.5t19.5 -287.5t12.5 -254h-303q-4 160 -11.5 317.5t-13.5 305.5l-225 -496h-211l-226 494q-4 -72 -8 -156t-7 -169 t-6 -162t-5 -134h-297z" />
<glyph unicode="&#x43d;" horiz-adv-x="1214" d="M143 0v1077h306v-401h317v401h305v-1077h-305v426h-317v-426h-306z" />
<glyph unicode="&#x43e;" horiz-adv-x="1243" d="M92 541q0 127 40 231.5t110.5 178t168 114.5t212.5 41q117 0 214 -41t166.5 -114.5t108.5 -178t39 -231.5t-37 -232.5t-106.5 -180.5t-167 -116t-217.5 -41q-119 0 -216.5 41t-167 116t-108.5 180.5t-39 232.5zM403 541q0 -141 57.5 -224.5t162.5 -83.5q104 0 160.5 83 t56.5 225q0 141 -56.5 222t-160.5 81t-162 -81t-58 -222z" />
<glyph unicode="&#x43f;" horiz-adv-x="1214" d="M143 0v1077h928v-1077h-305v823h-317v-823h-306z" />
<glyph unicode="&#x440;" horiz-adv-x="1236" d="M143 -379v1419q41 12 94.5 23.5t112 20t118.5 13.5t116 5q133 0 237.5 -40t176 -112.5t109.5 -177t38 -233.5q0 -125 -31 -227.5t-90 -176.5t-147.5 -114.5t-202.5 -40.5q-63 0 -118.5 12t-106.5 35v-406h-306zM449 281q29 -18 74.5 -30.5t92.5 -12.5q217 0 218 292 q0 141 -63.5 226.5t-188.5 85.5q-41 0 -76 -3t-57 -8v-550z" />
<glyph unicode="&#x441;" horiz-adv-x="1024" d="M92 539q0 117 38 220t109.5 180t174 122t233.5 45q86 0 158 -15.5t139 -43.5l-63 -244q-43 16 -94.5 28.5t-114.5 12.5q-135 0 -202 -84t-67 -221q0 -145 62.5 -225.5t218.5 -80.5q55 0 118.5 10.5t117.5 32.5l43 -249q-53 -23 -133 -39.5t-177 -16.5q-147 0 -253.5 44 t-175 120t-100.5 179.5t-32 224.5z" />
<glyph unicode="&#x442;" horiz-adv-x="1075" d="M41 827v250h993v-250h-344v-827h-305v827h-344z" />
<glyph unicode="&#x443;" horiz-adv-x="1120" d="M10 -336l53 244q47 -16 84 -22.5t78 -6.5q82 0 126 44t75 122q-104 205 -208.5 460t-197.5 572h324q20 -80 48 -173t58.5 -188t62.5 -185.5t60 -163.5q27 74 55.5 164t56.5 185t53.5 188t45.5 173h316q-92 -311 -192.5 -583.5t-219.5 -528.5q-43 -92 -86 -156.5 t-94 -106.5t-115.5 -61.5t-150.5 -19.5q-72 0 -132.5 13.5t-99.5 29.5z" />
<glyph unicode="&#x444;" horiz-adv-x="1626" d="M92 535q0 102 34 192t103.5 160.5t178 117t256.5 62.5v471l297 51v-522q115 -10 219 -47t183 -102.5t125 -160.5t46 -225q0 -131 -46 -227t-124 -161.5t-182.5 -101.5t-220.5 -46v-375h-297v375q-141 10 -249 55t-179.5 117t-107.5 166.5t-36 200.5zM399 530 q0 -135 68 -198.5t197 -77.5v559q-123 -10 -194 -76t-71 -207zM961 254q47 0 94 14.5t85 46t61.5 85t23.5 132.5q0 80 -23.5 133.5t-61.5 85t-85 46t-94 16.5v-559z" />
<glyph unicode="&#x445;" horiz-adv-x="1134" d="M20 0q25 51 68 120.5t93 144.5t105.5 149.5t108.5 140.5q-92 129 -184 261t-182 261h329l213 -327l213 327h316l-369 -518q123 -154 223.5 -299t159.5 -260h-328l-41 77q-25 46 -55.5 96t-64 100.5t-66.5 91.5q-31 -39 -62.5 -86.5t-60 -95.5t-56.5 -95t-48 -88h-312z " />
<glyph unicode="&#x446;" horiz-adv-x="1294" d="M143 0v1077h306v-827h317v827h305v-827h182v-557h-260v307h-850z" />
<glyph unicode="&#x447;" d="M92 727v350h305v-348q0 -78 50.5 -108.5t140.5 -30.5q18 0 57 3t70 7v477h305v-1077h-305v354q-41 -6 -89 -10t-73 -4q-104 0 -189 19.5t-145.5 63.5t-93.5 118.5t-33 185.5z" />
<glyph unicode="&#x448;" horiz-adv-x="1761" d="M143 0v1077h306v-827h280v827h305v-827h279v827h305v-1077h-1475z" />
<glyph unicode="&#x449;" horiz-adv-x="1841" d="M143 0v1077h306v-827h280v827h305v-827h279v827h305v-827h182v-557h-260v307h-1397z" />
<glyph unicode="&#x44a;" horiz-adv-x="1308" d="M41 827v250h561v-383q29 8 75 13.5t105 5.5q98 0 181.5 -22.5t143.5 -69t95 -117t35 -164.5t-33 -162.5t-94 -113t-146 -66t-190 -21.5q-135 0 -247.5 13.5t-229.5 42.5v794h-256zM602 221q25 -4 66 -6t86 -2q84 0 132 31.5t48 103.5q0 37 -16.5 62.5t-45 41t-66.5 21.5 t-81 6q-31 0 -67.5 -4t-55.5 -8v-246z" />
<glyph unicode="&#x44b;" horiz-adv-x="1687" d="M143 33v1044h306v-383q29 8 74.5 13.5t105.5 5.5q94 0 177 -22.5t144.5 -69t97 -117t35.5 -164.5t-32.5 -162.5t-94 -113t-146.5 -66t-189 -21.5q-135 0 -248 13.5t-230 42.5zM449 221q25 -4 65.5 -6t85.5 -2q84 0 132 31.5t48 103.5q0 37 -16 62.5t-45 41t-67 21.5 t-81 6q-31 0 -67.5 -4t-54.5 -8v-246zM1239 0v1077h305v-1077h-305z" />
<glyph unicode="&#x44c;" horiz-adv-x="1155" d="M143 33v1044h306v-383q29 8 74.5 13.5t105.5 5.5q96 0 179 -22.5t144.5 -69t96 -117t34.5 -164.5t-32.5 -162.5t-94 -113t-146.5 -66t-189 -21.5q-135 0 -248 13.5t-230 42.5zM449 221q25 -4 65.5 -6t85.5 -2q84 0 132 31.5t48 103.5q0 37 -16 62.5t-45 41t-67 21.5 t-81 6q-31 0 -67.5 -4t-54.5 -8v-246z" />
<glyph unicode="&#x44d;" horiz-adv-x="1067" d="M59 43l58 240q59 -20 139 -37t152 -17q51 0 98 10.5t85 35t63.5 64.5t33.5 97h-409v219h407q-16 115 -89 158t-177 43q-78 0 -140.5 -13.5t-129.5 -33.5l-58 235q92 33 178 47.5t166 14.5q125 0 227.5 -38t176 -110.5t114.5 -177t41 -235.5q0 -137 -41 -243.5 t-113.5 -178.5t-174 -110t-224.5 -38q-102 0 -191.5 14.5t-191.5 53.5z" />
<glyph unicode="&#x44e;" horiz-adv-x="1785" d="M143 0v1077h306v-401h225q18 98 63 178t111.5 136.5t149.5 86t180 29.5q111 0 205 -40t163.5 -113.5t108.5 -178t39 -233.5t-39 -234.5t-108.5 -180.5t-164 -115t-204.5 -40q-98 0 -184.5 32t-153 90.5t-110.5 143.5t-60 189h-221v-426h-306zM973 541q0 -137 55 -222.5 t150 -85.5q94 0 149 85t55 223q0 137 -55 220t-149 83t-149.5 -83t-55.5 -220z" />
<glyph unicode="&#x44f;" horiz-adv-x="1196" d="M61 0q59 133 121 243.5t119 190.5q-86 45 -137 116t-51 177q0 180 130 276.5t359 96.5q51 0 113.5 -4t124 -12.5t118 -17.5t95.5 -19v-1047h-305v383h-158q-66 -96 -117 -193.5t-98 -189.5h-314zM416 731q0 -37 16.5 -62.5t43 -41t59 -21.5t65.5 -6h148v258 q-20 2 -63.5 5t-74.5 3q-113 0 -153.5 -38t-40.5 -97z" />
<glyph unicode="&#x450;" horiz-adv-x="1196" d="M92 530q0 143 44 251t116 179.5t165 108.5t191 37q229 0 362.5 -140.5t133.5 -412.5q0 -27 -2 -58.5t-4 -56.5h-692q10 -94 87.5 -149.5t208.5 -55.5q84 0 165 15.5t132 38.5l41 -248q-25 -12 -65.5 -24.5t-90.5 -21.5t-107.5 -15.5t-114.5 -6.5q-145 0 -253 43 t-178.5 118t-104.5 177t-34 221zM406 647h403q-2 39 -13.5 76t-35 65.5t-59 47t-89.5 18.5q-51 0 -88 -17.5t-61.5 -46t-37.5 -66.5t-19 -77zM346 1464l186 172l291 -331l-139 -125z" />
<glyph unicode="&#x451;" horiz-adv-x="1196" d="M92 530q0 143 44 251t116 179.5t165 108.5t191 37q229 0 362.5 -140.5t133.5 -412.5q0 -27 -2 -58.5t-4 -56.5h-692q10 -94 87.5 -149.5t208.5 -55.5q84 0 165 15.5t132 38.5l41 -248q-25 -12 -65.5 -24.5t-90.5 -21.5t-107.5 -15.5t-114.5 -6.5q-145 0 -253 43 t-178.5 118t-104.5 177t-34 221zM406 647h403q-2 39 -13.5 76t-35 65.5t-59 47t-89.5 18.5q-51 0 -88 -17.5t-61.5 -46t-37.5 -66.5t-19 -77zM223 1389q0 72 47 113.5t110 41.5t110.5 -42t47.5 -113q0 -72 -47 -114t-111 -42q-63 0 -110 42t-47 114zM679 1389 q0 72 47.5 113.5t110.5 41.5t110.5 -42t47.5 -113q0 -72 -47 -114t-111 -42q-63 0 -110.5 42t-47.5 114z" />
<glyph unicode="&#x452;" horiz-adv-x="1226" d="M37 1221v190h127v129l305 49v-178h293v-190h-293v-179q31 10 79 19.5t93 9.5q127 0 213 -35t138 -97t76 -149.5t26 -193.5v-569q0 -211 -99.5 -308.5t-285.5 -97.5q-29 0 -81.5 5t-101.5 22l41 248q31 -10 52.5 -13.5t60.5 -3.5q59 0 83.5 39t24.5 117v506 q0 147 -37.5 208.5t-140.5 61.5q-41 0 -76.5 -7t-64.5 -16v-788h-305v1221h-127z" />
<glyph unicode="&#x453;" horiz-adv-x="927" d="M143 0v1077h764v-250h-458v-827h-306zM303 1305l291 331l186 -172l-337 -284z" />
<glyph unicode="&#x454;" horiz-adv-x="1067" d="M72 545q0 131 41 235.5t114.5 177t176 110.5t227.5 38q80 0 166 -14.5t178 -47.5l-57 -235q-68 20 -130.5 33.5t-140.5 13.5q-104 0 -177 -43t-89 -158h407v-219h-409q8 -59 33.5 -98t63.5 -63.5t85 -35t98 -10.5q72 0 152 16.5t139 37.5l58 -240q-104 -39 -191.5 -53.5 t-191.5 -14.5q-123 0 -224.5 38t-174 110t-113.5 178.5t-41 243.5z" />
<glyph unicode="&#x455;" horiz-adv-x="993" d="M80 37l51 248q78 -31 160 -48.5t162 -17.5q84 0 118.5 16.5t34.5 63.5q0 37 -45 64.5t-137 62.5q-72 27 -130 55.5t-99 68.5t-63.5 95t-22.5 133q0 152 112.5 240t308.5 88q98 0 188.5 -17.5t143.5 -37.5l-53 -238q-53 18 -115.5 32.5t-140.5 14.5q-143 0 -143 -80 q0 -18 6 -32.5t24.5 -27.5t50 -28.5t80.5 -34.5q100 -37 166 -72.5t104 -77.5t53 -93.5t15 -118.5q0 -160 -119.5 -242t-338.5 -82q-143 0 -238.5 25t-132.5 41z" />
<glyph unicode="&#x456;" horiz-adv-x="591" d="M113 1389q0 84 54 132t128 48t128 -48t54 -132t-54 -132.5t-128 -48.5t-128 48.5t-54 132.5zM143 0v1077h306v-1077h-306z" />
<glyph unicode="&#x457;" horiz-adv-x="591" d="M143 0v1077h306v-1077h-306zM-98 1389q0 72 47 113.5t110 41.5t110.5 -42t47.5 -113q0 -72 -47 -114t-111 -42q-63 0 -110 42t-47 114zM358 1389q0 72 47.5 113.5t110.5 41.5t110.5 -42t47.5 -113q0 -72 -47 -114t-111 -42q-63 0 -110.5 42t-47.5 114z" />
<glyph unicode="&#x458;" horiz-adv-x="591" d="M-147 -350l41 248q31 -10 56 -14.5t64 -4.5q72 0 100.5 43t28.5 125v1030h306v-1038q0 -213 -104.5 -315.5t-301.5 -102.5q-29 0 -85 6.5t-105 22.5zM113 1389q0 84 54 132t128 48t128 -48t54 -132t-54 -132.5t-128 -48.5t-128 48.5t-54 132.5z" />
<glyph unicode="&#x459;" horiz-adv-x="1847" d="M20 236q104 20 162 58t86 97q23 51 36 119t19.5 142.5t7.5 152.5t1 149v123h809v-403q29 8 75 13t105 5q88 0 170 -19.5t145.5 -61.5t101.5 -109.5t38 -161.5t-33 -162.5t-94.5 -113t-146.5 -66t-189 -21.5q-135 0 -248 13.5t-229 42.5v794h-209q-2 -59 -5.5 -125.5 t-11.5 -133t-21.5 -130t-33.5 -119.5q-25 -66 -62.5 -122t-96 -101t-141.5 -74.5t-194 -39.5zM1141 221q25 -4 65.5 -6t85.5 -2q84 0 132.5 31.5t48.5 103.5q0 37 -16.5 62.5t-45.5 41t-66.5 21.5t-80.5 6q-31 0 -68 -4t-55 -8v-246z" />
<glyph unicode="&#x45a;" horiz-adv-x="1777" d="M143 0v1077h306v-401h317v401h305v-403q29 8 75 13t105 5q88 0 170 -19.5t145.5 -61.5t101.5 -109.5t38 -161.5t-33 -162.5t-94 -113t-146 -66t-190 -21.5q-135 0 -247.5 13.5t-229.5 42.5v393h-317v-426h-306zM1071 221q25 -4 66 -6t86 -2q84 0 132 31.5t48 103.5 q0 37 -16.5 62.5t-45 41t-66.5 21.5t-81 6q-31 0 -67.5 -4t-55.5 -8v-246z" />
<glyph unicode="&#x45b;" horiz-adv-x="1226" d="M37 1221v190h127v129l305 49v-178h293v-190h-293v-179q31 10 79 19.5t93 9.5q131 0 218 -36t139.5 -101.5t74 -155.5t21.5 -200v-578h-306v541q0 147 -37.5 208.5t-140.5 61.5q-41 0 -76.5 -7t-64.5 -16v-788h-305v1221h-127z" />
<glyph unicode="&#x45c;" horiz-adv-x="1200" d="M143 0v1077h306v-377q45 43 95 94.5t97 101.5t90 97t76 84h371q-41 -43 -101.5 -106.5t-128 -132t-136.5 -136t-130 -120.5q61 -47 131 -117t136.5 -149.5t127 -161.5t103.5 -154h-349q-37 55 -84 115.5t-98 119t-103 109.5t-97 88v-432h-306zM438 1305l291 331l186 -172 l-337 -284z" />
<glyph unicode="&#x45d;" horiz-adv-x="1267" d="M143 0v1077h306q0 -102 -1.5 -195.5t-3.5 -169t-4 -132t-2 -86.5q123 180 226.5 323.5t201.5 259.5h258v-1077h-307q0 102 2 203.5t4 187.5t5 150.5t3 95.5q-59 -84 -118.5 -170t-113.5 -169t-102 -159t-85 -139h-269zM303 1464l186 172l291 -331l-139 -125z" />
<glyph unicode="&#x45e;" horiz-adv-x="1120" d="M10 -336l53 244q47 -16 84 -22.5t78 -6.5q82 0 126 44t75 122q-104 205 -208.5 460t-197.5 572h324q20 -80 48 -173t58.5 -188t62.5 -185.5t60 -163.5q27 74 55.5 164t56.5 185t53.5 188t45.5 173h316q-92 -311 -192.5 -583.5t-219.5 -528.5q-43 -92 -86 -156.5 t-94 -106.5t-115.5 -61.5t-150.5 -19.5q-72 0 -132.5 13.5t-99.5 29.5zM202 1518l211 55q16 -78 54.5 -110.5t89.5 -32.5q53 0 91 29.5t54 111.5l209 -55q-6 -70 -38 -124.5t-80 -91t-109.5 -56t-126.5 -19.5q-66 0 -126.5 19.5t-109.5 57t-81 92t-38 124.5z" />
<glyph unicode="&#x45f;" horiz-adv-x="1214" d="M143 0v1077h306v-827h317v827h305v-1077h-338v-307h-260v307h-330z" />
<glyph unicode="&#x462;" horiz-adv-x="1529" d="M31 1096v252h334v163h319v-163h389v-252h-389v-148q23 2 42 2h42q334 0 502 -118.5t168 -366.5q0 -119 -46 -209t-131 -151.5t-207 -92t-272 -30.5q-86 0 -195.5 12t-221.5 39v1063h-334zM684 254q23 -2 51 -2h70q63 0 118.5 10t97.5 35t65.5 65.5t23.5 102.5 q0 125 -93 170t-269 45h-29q-18 0 -35 -2v-424z" />
<glyph unicode="&#x463;" horiz-adv-x="1302" d="M20 866v211h250v463l305 51v-514h394v-211h-394v-192q29 8 75 13t106 5q88 0 170 -19.5t145.5 -61.5t101 -109.5t37.5 -161.5t-32.5 -162.5t-94 -113t-146.5 -66t-189 -21.5q-135 0 -248 13.5t-230 42.5v833h-250zM575 221q25 -4 66 -6t86 -2q84 0 132 31.5t48 103.5 q0 37 -16.5 62.5t-45 41t-66.5 21.5t-81 6q-31 0 -67.5 -4t-55.5 -8v-246z" />
<glyph unicode="&#x470;" horiz-adv-x="1730" d="M133 928v491h309v-454q0 -184 68 -270.5t201 -98.5v823h309v-823q133 12 200.5 98t67.5 271v454h309v-491q0 -127 -34.5 -232.5t-106.5 -182.5t-181.5 -122t-258.5 -53v-338h-301v338q-150 8 -259.5 53t-181 122t-106.5 182.5t-35 232.5z" />
<glyph unicode="&#x471;" horiz-adv-x="1667" d="M133 555v522h301v-508q0 -147 63.5 -234t186.5 -97v839h297v-839q123 10 187.5 97t64.5 234v508h301v-522q0 -111 -29.5 -208t-95.5 -174t-171 -127t-257 -66v-359h-297v359q-152 16 -256 67t-169.5 127t-95.5 173t-30 208z" />
<glyph unicode="&#x472;" horiz-adv-x="1617" d="M102 711q0 182 57.5 320t155 232.5t225.5 141.5t269 47q145 0 274 -47t225.5 -141.5t152 -232.5t55.5 -320t-54.5 -320.5t-148.5 -231.5t-224.5 -140.5t-279.5 -47.5q-145 0 -274 47.5t-225.5 140.5t-152 231.5t-55.5 320.5zM438 811q55 39 107.5 54.5t99.5 15.5 q66 0 117 -14.5t96 -33t88 -33t92 -14.5q63 0 140 35q-25 160 -120 255t-249 95q-156 0 -252 -97t-119 -263zM446 565q31 -145 123.5 -229t239.5 -84q145 0 237.5 83t124.5 228q-41 -20 -79.5 -28.5t-75.5 -8.5q-66 0 -117 14.5t-96 33t-88 33t-92 14.5q-39 0 -81.5 -12.5 t-95.5 -43.5z" />
<glyph unicode="&#x473;" horiz-adv-x="1243" d="M92 541q0 127 40 231.5t110.5 178t168 114.5t212.5 41q129 0 227 -46t164.5 -124t101.5 -180.5t35 -214.5q0 -127 -37 -232.5t-106.5 -180.5t-167 -116t-217.5 -41q-129 0 -228.5 45t-167 123t-101.5 181.5t-34 220.5zM389 483q12 -119 72.5 -192.5t161.5 -73.5 q92 0 151.5 62.5t75.5 173.5q-35 -20 -68.5 -28.5t-56.5 -8.5q-35 0 -69.5 14t-66.5 30.5t-62.5 31t-55.5 14.5q-43 0 -82 -23zM395 637q29 20 59.5 28.5t53.5 8.5q35 0 69.5 -14.5t66.5 -31t62.5 -30.5t55.5 -14q43 0 88 28q-6 43 -20.5 88t-41 80t-67.5 57.5t-98 22.5 q-92 0 -151 -58.5t-77 -164.5z" />
<glyph unicode="&#x474;" horiz-adv-x="1619" d="M20 1419h347q49 -156 94 -291t90 -260t90 -244.5t98 -244.5l273 768q16 45 38.5 96t61.5 95t100.5 73t155.5 29q82 0 151.5 -22.5t141.5 -86.5l-123 -213q-23 20 -53.5 32.5t-67.5 12.5q-41 0 -68.5 -22.5t-43.5 -61.5l-416 -1079h-307q-72 152 -137.5 307.5t-133 325.5 t-139.5 363.5t-152 422.5z" />
<glyph unicode="&#x475;" horiz-adv-x="1222" d="M20 1077h324q20 -78 48 -172t57.5 -190.5t60.5 -186.5t57 -159l162 485q20 59 45 104.5t59.5 75t83 45t115.5 15.5q45 0 101.5 -9.5t109.5 -31.5l-63 -224q-31 14 -52.5 17.5t-37.5 3.5q-37 0 -64 -18.5t-45 -65.5l-291 -766h-254q-100 209 -212 486.5t-204 590.5z" />
<glyph unicode="&#x48a;" horiz-adv-x="1693" d="M164 0v1419h317v-837q74 111 158 230.5t169 231t167 210t149 165.5h260v-1149h226q4 -164 -63.5 -339t-209.5 -318l-207 131q55 72 89 130t57 126h-207v930q-180 -211 -340 -448.5t-297 -481.5h-268zM444 1837l211 55q16 -78 54.5 -110.5t89.5 -32.5q53 0 91 29.5 t54 111.5l209 -55q-6 -70 -38 -124t-80 -91t-109.5 -56.5t-126.5 -19.5q-66 0 -126.5 19.5t-109.5 57.5t-81 92t-38 124z" />
<glyph unicode="&#x48b;" horiz-adv-x="1290" d="M102 0v1077h306q0 -102 -1 -195.5t-3.5 -169t-4.5 -132t-2 -86.5q123 180 226.5 323.5t201.5 259.5h258v-827h185q2 -86 -16.5 -169t-52.5 -160t-82 -143.5t-105 -117.5l-189 119q49 59 79 108.5t50 112.5h-176q0 102 2 203.5t4 187.5t5.5 150.5t3.5 95.5 q-59 -84 -119 -170t-114 -169t-102 -159t-85 -139h-269zM248 1518l211 55q16 -78 54 -110.5t89 -32.5q53 0 91 29.5t55 111.5l208 -55q-6 -70 -37.5 -124.5t-79.5 -91t-109.5 -56t-127.5 -19.5t-126 19.5t-109.5 57t-81 92t-37.5 124.5z" />
<glyph unicode="&#x48c;" horiz-adv-x="1351" d="M20 1061v225h164v133h305v-133h238v-225h-238v-146h105q158 0 281.5 -24.5t208.5 -79.5t130.5 -143t45.5 -215q0 -236 -171 -351.5t-489 -115.5q-86 0 -195.5 10t-220.5 37v1028h-164zM489 262q23 -2 54.5 -3t72.5 -1q63 0 121 8t102 29.5t70.5 58.5t26.5 97 q0 61 -24.5 100t-69.5 61.5t-110.5 30.5t-147.5 8h-95v-389z" />
<glyph unicode="&#x48d;" horiz-adv-x="1159" d="M20 807v190h127v121h306v-121h292v-190h-292v-133q29 8 74.5 13t105.5 5q88 0 170 -19.5t145.5 -61.5t101 -109.5t37.5 -161.5t-32.5 -162.5t-94 -113t-146.5 -66t-189 -21.5q-135 0 -248 13.5t-230 42.5v774h-127zM453 221q25 -4 65.5 -6t85.5 -2q84 0 132 31.5 t48 103.5q0 37 -16 62.5t-45 41t-67 21.5t-81 6q-31 0 -67.5 -4t-54.5 -8v-246z" />
<glyph unicode="&#x48e;" horiz-adv-x="1339" d="M164 0v1399q51 10 111.5 17t120 11.5t115.5 6.5t99 2q317 0 487.5 -112t170.5 -366q0 -147 -64.5 -245.5t-175.5 -155.5l111 -186l-213 -117l-138 231q-41 -4 -82.5 -7t-87.5 -3h-135v-475h-319zM483 727h107h30q13 0 27 2l-98 170l211 119l123 -213q55 55 55 156 q0 59 -21.5 98t-61.5 62.5t-97.5 32.5t-126.5 9q-35 0 -79 -2t-69 -4v-430z" />
<glyph unicode="&#x48f;" horiz-adv-x="1257" d="M143 -379v1419q41 12 97.5 23.5t119 20t126 13.5t118.5 5q133 0 237.5 -40t176.5 -112.5t109.5 -177t37.5 -233.5q0 -158 -48 -279t-140 -192l110 -191l-192 -106l-123 215q-18 -2 -37.5 -4t-40.5 -2q-63 0 -128.5 12t-116.5 35v-406h-306zM449 260q29 -18 85 -30.5 t103 -12.5h2l-117 203l191 108l108 -188q33 72 33 190q0 141 -63.5 226.5t-188.5 85.5q-41 0 -86 -3t-67 -8v-571z" />
<glyph unicode="&#x490;" horiz-adv-x="1173" d="M164 0v1419h661v271h308v-541h-650v-1149h-319z" />
<glyph unicode="&#x491;" horiz-adv-x="948" d="M143 0v1077h504v254h260v-504h-458v-827h-306z" />
<glyph unicode="&#x492;" horiz-adv-x="1298" d="M123 600v225h166v594h968v-270h-649v-324h344v-225h-344v-600h-319v600h-166z" />
<glyph unicode="&#x493;" horiz-adv-x="1075" d="M102 373v190h168v514h764v-250h-459v-264h273v-190h-273v-373h-305v373h-168z" />
<glyph unicode="&#x494;" horiz-adv-x="1384" d="M164 0v1419h952v-270h-633v-266q104 12 207 12q137 0 249 -42t190.5 -122t120.5 -195.5t42 -263.5q0 -145 -40 -265t-114.5 -206t-184 -133t-248.5 -47q-51 0 -77 2t-53 6l7 244q16 -2 33.5 -4t54.5 -2q84 0 144 30.5t99 85t57.5 129t18.5 160.5q0 106 -27.5 176 t-76.5 112t-118 58.5t-151 16.5q-35 0 -67.5 -1t-65.5 -3v-631h-319z" />
<glyph unicode="&#x495;" horiz-adv-x="1165" d="M143 0v1077h815v-250h-509v-182q37 6 80.5 9t78.5 3q106 0 196.5 -31.5t154 -97t99.5 -165t36 -236.5q0 -135 -36 -231.5t-100.5 -158t-152.5 -90t-195 -28.5q-57 0 -118 6l16 230q25 -2 49.5 -3.5t46.5 -1.5q111 0 162 73t51 198q0 88 -18.5 145.5t-53 92t-84 49 t-108.5 14.5q-10 0 -26 -1l-30 -2q-15 -1 -28.5 -3t-19.5 -2v-414h-306z" />
<glyph unicode="&#x496;" horiz-adv-x="2093" d="M20 0q59 104 127 208.5t138.5 202t145.5 182.5t151 152q-86 88 -160 172t-140.5 166t-130 165t-128.5 171h385q61 -86 115.5 -157.5t106.5 -139t105 -133t115 -139.5v569h311v-569q61 76 117.5 144.5t110 136t106.5 138t109 150.5h383q-74 -96 -138.5 -180t-130 -164 t-134 -159.5t-150.5 -167.5q106 -98 199 -213t179 -242h240v-649h-307v356h-109q-63 96 -118.5 178t-110.5 158t-114.5 148.5t-131.5 150.5v-635h-311v635q-74 -86 -133.5 -160t-113.5 -147.5t-109.5 -152.5t-118.5 -175h-355z" />
<glyph unicode="&#x497;" horiz-adv-x="1787" d="M20 0q102 166 211 305t232 270q-129 133 -234.5 261.5t-187.5 240.5h356q53 -76 128 -175t196 -251v426h297v-426q125 150 198.5 251.5t126.5 174.5h353q-76 -117 -178.5 -240.5t-239.5 -258.5q86 -92 151.5 -170t124.5 -158h193v-547h-260v297h-109q-154 231 -360 487 v-487h-297v487q-104 -139 -198.5 -262t-162.5 -225h-340z" />
<glyph unicode="&#x498;" horiz-adv-x="1249" d="M51 86l94 250q29 -12 71 -27.5t93 -30t106.5 -24.5t110.5 -10q135 0 218 39t83 135q0 59 -26.5 96t-72.5 56.5t-108.5 26.5t-136.5 7h-192v262h215q55 0 103 8.5t84 29t56.5 53t20.5 81.5q0 70 -55.5 105t-155.5 35q-113 0 -196.5 -26t-159.5 -69l-103 252q82 51 198 83 t263 32q115 0 213 -25.5t170 -76t112 -127t40 -179.5q0 -78 -42 -154.5t-128 -129.5q47 -25 89 -57.5t73.5 -75.5t50 -97.5t18.5 -121.5q0 -197 -116.5 -299.5t-333.5 -126.5q-18 -33 -29 -62q66 -33 90.5 -78t24.5 -92q0 -98 -78 -149.5t-205 -51.5q-45 0 -90 7.5t-90 19.5 l37 178q14 -4 52 -13t75 -9q29 0 50 11t23 40q2 25 -19.5 45t-68.5 31l-24 6q8 23 19 52.5t26 57.5q-131 6 -251 39t-198 74z" />
<glyph unicode="&#x499;" horiz-adv-x="1013" d="M61 45l56 238q43 -16 132 -39t202 -23q184 0 184 103q0 35 -14.5 56t-38 33.5t-54 16.5t-61.5 4h-240v217h242q74 0 103.5 30t29.5 69t-33.5 70.5t-124.5 31.5q-90 0 -169.5 -16.5t-129.5 -30.5l-53 237q72 27 166 43.5t205 16.5q84 0 164 -15.5t142 -51.5t100 -94 t38 -146q0 -80 -36.5 -136.5t-104.5 -93.5q90 -39 133 -102.5t43 -161.5q0 -74 -25.5 -129t-70.5 -94t-105.5 -62.5t-130.5 -33.5q-8 -16 -16 -34t-12 -30q66 -33 90 -78t24 -92q0 -98 -77.5 -149.5t-204.5 -51.5q-45 0 -90 7.5t-91 19.5l37 178q14 -4 52 -13t75 -9 q29 0 50.5 11t23.5 40q2 25 -19.5 45t-68.5 31l-25 6q8 23 20.5 52.5t24.5 57.5q-94 6 -185 24.5t-157 47.5z" />
<glyph unicode="&#x49a;" horiz-adv-x="1509" d="M164 0v1419h319v-536q125 131 251 273t235 263h379q-145 -172 -292 -331.5t-308 -321.5q117 -98 229.5 -223t220.5 -273h270v-649h-307v379h-160q-43 70 -101 150.5t-126.5 161.5t-142.5 156t-148 132v-600h-319z" />
<glyph unicode="&#x49b;" horiz-adv-x="1241" d="M143 0v1077h306v-377q45 43 95 94.5t97 101.5t90 97t76 84h371q-41 -43 -101.5 -106.5t-128 -132t-136.5 -136t-130 -120.5q74 -57 158 -145.5t161 -186.5h199v-547h-260v297h-109q-37 55 -84 115.5t-98 119t-103 109.5t-97 88v-432h-306z" />
<glyph unicode="&#x49c;" horiz-adv-x="1605" d="M164 0v1419h319v-563h99v305h198v-291q61 70 112.5 134.5t100.5 129t98.5 134t102.5 151.5h379q-68 -100 -130.5 -183t-125 -160t-132 -151.5t-151.5 -158.5q166 -145 298 -333.5t253 -432.5h-379q-35 70 -85 156t-107.5 171t-117.5 161.5t-116 129.5v-292h-198v301h-99 v-627h-319z" />
<glyph unicode="&#x49d;" horiz-adv-x="1396" d="M143 0v1077h306v-424h81v246h158v-227q88 104 164 203.5t145 201.5h363q-47 -61 -103.5 -127.5t-117 -131t-117.5 -124t-104 -104.5q61 -59 127.5 -133t128 -153t113.5 -157.5t89 -146.5h-350q-31 49 -69.5 110.5t-83 125t-91.5 124t-94 107.5v-229h-158v241h-81v-479 h-306z" />
<glyph unicode="&#x49e;" horiz-adv-x="1449" d="M18 1143v205h166v163h320v-163h176v-205h-176v-301q68 66 141.5 139.5t146 149t139 149.5t120.5 139h379q-80 -100 -156 -189t-155 -172t-165 -165t-186 -168q170 -141 328.5 -315t304.5 -410h-379q-43 70 -101.5 144.5t-127 147.5t-142 141.5t-147.5 125.5v-559h-320 v1143h-166z" />
<glyph unicode="&#x49f;" horiz-adv-x="1241" d="M4 928v149h143v92h306v-92h153v-149h-153v-295q102 100 209.5 217t195.5 227h363q-127 -158 -253 -288t-251 -240q61 -59 131 -127t135.5 -138.5t120.5 -143t92 -140.5h-350q-33 53 -79 109.5t-99.5 109.5t-108.5 104.5t-106 94.5v-418h-306v928h-143z" />
<glyph unicode="&#x4a0;" horiz-adv-x="1632" d="M41 1149v270h674v-536q125 131 251 273t234 263h379q-145 -172 -291.5 -331.5t-308.5 -321.5q170 -141 328.5 -335.5t304.5 -430.5h-379q-43 70 -101.5 150.5t-127 161.5t-142.5 156t-147 132v-600h-320v1149h-354z" />
<glyph unicode="&#x4a1;" horiz-adv-x="1345" d="M41 852v225h561v-403q45 49 93 103t93.5 108.5t86 103.5t71.5 88h363q-45 -55 -102.5 -120.5t-119 -131t-119 -128t-102.5 -107.5q61 -59 128 -133t128.5 -153t113.5 -157.5t89 -146.5h-350q-33 53 -76 115.5t-92 124t-101.5 119t-103.5 100.5v-459h-305v852h-256z" />
<glyph unicode="&#x4a2;" horiz-adv-x="1652" d="M164 0v1419h319v-542h537v542h319v-1149h273v-649h-307v379h-285v602h-537v-602h-319z" />
<glyph unicode="&#x4a3;" horiz-adv-x="1300" d="M143 0v1077h306v-401h317v401h305v-827h189v-547h-261v297h-233v426h-317v-426h-306z" />
<glyph unicode="&#x4a4;" horiz-adv-x="1714" d="M164 0v1419h319v-542h537v542h674v-270h-355v-1149h-319v602h-537v-602h-319z" />
<glyph unicode="&#x4a5;" horiz-adv-x="1337" d="M143 0v1077h306v-401h317v401h551v-225h-246v-852h-305v426h-317v-426h-306z" />
<glyph unicode="&#x4a6;" horiz-adv-x="2271" d="M164 0v1419h1167v-540q61 8 124 12t122 4q137 0 248.5 -42t190.5 -122t121 -195.5t42 -263.5q0 -145 -40 -265t-114.5 -206t-184 -133t-249.5 -47q-51 0 -76.5 2t-52.5 6l6 244q16 -2 34 -4t54 -2q84 0 144.5 30.5t99.5 85t57.5 129t18.5 160.5q0 106 -27.5 176t-77 112 t-118 58.5t-150.5 16.5q-43 0 -86 -2t-86 -6v-627h-319v1149h-529v-1149h-319z" />
<glyph unicode="&#x4a7;" horiz-adv-x="1787" d="M143 0v1077h928v-432q37 6 81 9t79 3q106 0 196.5 -31.5t154 -97t99 -165t35.5 -236.5q0 -135 -35.5 -231.5t-100 -158t-153 -90t-194.5 -28.5q-57 0 -119 6l16 230q25 -2 49.5 -3.5t47.5 -1.5q111 0 162 73t51 198q0 88 -18.5 145.5t-53.5 92t-84 49t-108 14.5 q-10 0 -26 -1l-31 -2q-15 -1 -28.5 -3t-19.5 -2v-414h-305v823h-317v-823h-306z" />
<glyph unicode="&#x4a8;" horiz-adv-x="1638" d="M102 713q0 137 41 270t133.5 237.5t241 168t363.5 63.5q76 0 157.5 -17.5t147.5 -45.5l-76 -254q-45 23 -104.5 36t-118.5 13q-129 0 -216 -37t-139.5 -103.5t-75 -161t-22.5 -208.5q0 -72 8.5 -135.5t32 -114.5t66.5 -89t114 -59q-10 49 -13 99.5t-3 103.5 q0 123 33 223.5t95 171t155.5 109.5t214.5 39q111 0 191.5 -35t134 -97.5t79 -147.5t25.5 -183q0 -88 -25.5 -173t-81 -158.5t-141.5 -130t-207 -87.5q72 -59 174.5 -87.5t233.5 -43.5l-41 -258q-274 27 -445.5 124t-265.5 241q-190 12 -318 77.5t-205 166t-110 225.5 t-33 258zM952 451q0 -57 4.5 -105.5t12.5 -89.5q86 10 142 38t90 66.5t47.5 87t13.5 101.5q0 96 -38 147.5t-100 51.5q-31 0 -61.5 -13.5t-55 -47.5t-40 -91t-15.5 -145z" />
<glyph unicode="&#x4a9;" horiz-adv-x="1296" d="M92 541q0 104 33 205.5t101.5 181.5t173 129t245.5 49q80 0 147.5 -13.5t131.5 -41.5l-60 -228q-41 16 -88 27.5t-106 11.5q-90 0 -150.5 -27.5t-97.5 -73.5t-52.5 -104.5t-15.5 -119.5q0 -123 45 -206t144 -118q-6 29 -8.5 55.5t-2.5 55.5q0 217 94.5 322.5t276.5 105.5 q170 0 251 -88.5t81 -245.5q0 -63 -18.5 -126t-58.5 -118t-102.5 -98t-150.5 -68q49 -31 124 -52.5t188 -33.5l-37 -229q-121 6 -211 29.5t-158 62.5t-117 89t-88 110q-256 18 -385 159.5t-129 397.5zM776 317q0 -35 2 -63.5t8 -56.5q70 10 111 34.5t63.5 56t29.5 65.5t7 63 q0 59 -30.5 87.5t-69.5 28.5q-55 0 -88 -45t-33 -170z" />
<glyph unicode="&#x4aa;" horiz-adv-x="1327" d="M102 711q0 176 55.5 314t152 233.5t229.5 144.5t288 49q90 0 164 -13.5t129.5 -30.5t92 -35.5t53.5 -29.5l-92 -258q-66 35 -153 59.5t-198 24.5q-74 0 -144.5 -24.5t-124.5 -78.5t-87 -140t-33 -209q0 -98 21.5 -183t69.5 -146.5t126 -97.5t189 -36q70 0 125 8t98 19.5 t75.5 26t59.5 26.5l88 -256q-59 -37 -162.5 -66.5t-238.5 -38.5q-8 -16 -14.5 -30.5t-10.5 -24.5q66 -33 90.5 -78t24.5 -92q0 -98 -78 -149.5t-205 -51.5q-45 0 -90 7.5t-90 19.5l37 178q14 -4 52 -13t75 -9q29 0 50.5 11t23.5 40q2 25 -19.5 45t-68.5 31l-25 6 q8 25 21.5 56.5t25.5 60.5q-287 35 -434.5 222t-147.5 509z" />
<glyph unicode="&#x4ab;" horiz-adv-x="1024" d="M92 539q0 117 38 220t109.5 180t174 122t233.5 45q86 0 158 -15.5t139 -43.5l-63 -244q-43 16 -94.5 28.5t-114.5 12.5q-135 0 -202 -84t-67 -221q0 -145 62.5 -225.5t218.5 -80.5q55 0 118.5 10.5t117.5 32.5l43 -249q-47 -20 -116 -35t-151 -19q-8 -16 -14 -30.5 t-10 -24.5q66 -33 90 -78t24 -92q0 -98 -77.5 -149.5t-204.5 -51.5q-45 0 -90 7.5t-90 19.5l36 178q14 -4 52.5 -13t74.5 -9q29 0 50.5 11t23.5 40q2 25 -19.5 45t-68.5 31l-24 6q8 27 22 60.5t29 62.5q-106 20 -183 70t-127.5 123t-74 165.5t-23.5 194.5z" />
<glyph unicode="&#x4ac;" horiz-adv-x="1257" d="M41 1147v272h1176v-272h-429v-877h254v-649h-307v379h-266v1147h-428z" />
<glyph unicode="&#x4ad;" horiz-adv-x="1034" d="M20 827v250h994v-250h-344v-577h198v-547h-260v297h-243v827h-345z" />
<glyph unicode="&#x4ae;" horiz-adv-x="1353" d="M10 1419h371q66 -147 141.5 -292.5t161.5 -290.5q86 145 164 290.5t143 292.5h352q-117 -229 -241.5 -444t-263.5 -432v-543h-320v539q-139 217 -265 434t-243 446z" />
<glyph unicode="&#x4af;" horiz-adv-x="1124" d="M20 1065h326q20 -90 46 -185.5t55.5 -187.5t59.5 -178t58 -160q27 74 56.5 160t58.5 178t54.5 187.5t43.5 185.5h326q-86 -293 -183.5 -533.5t-203.5 -455.5v-455h-305v463q-104 215 -207 452.5t-185 528.5z" />
<glyph unicode="&#x4b0;" horiz-adv-x="1353" d="M10 1419h371q66 -147 141.5 -292.5t161.5 -290.5q86 145 164 290.5t143 292.5h352q-111 -217 -229.5 -421.5t-249.5 -411.5h244v-226h-270v-360h-320v360h-268v226h237q-129 205 -247.5 410.5t-229.5 422.5z" />
<glyph unicode="&#x4b1;" horiz-adv-x="1124" d="M20 1065h326q20 -90 46 -185.5t55.5 -187.5t59.5 -178t58 -160q27 74 56.5 160t58.5 178t54.5 187.5t43.5 185.5h326q-74 -254 -157 -468t-175 -407h180v-190h-235v-379h-305v379h-244v190h190q-92 193 -179 406t-159 469z" />
<glyph unicode="&#x4b2;" horiz-adv-x="1466" d="M20 0q90 166 210 348t268 385l-457 686h387l277 -444l270 444h364l-450 -690q98 -127 176 -241.5t141 -217.5h219v-649h-307v379h-139q-59 119 -130 240.5t-163 248.5q-29 -37 -73 -102t-88 -139t-83 -141.5t-57 -106.5h-365z" />
<glyph unicode="&#x4b3;" horiz-adv-x="1202" d="M20 0q25 51 67 120.5t93 144.5t105.5 149.5t107.5 140.5q-92 129 -183 261t-181 261h333l209 -323l209 323h320l-367 -518q63 -80 120.5 -157.5t107.5 -151.5h200v-547h-260v297h-119q-16 31 -40.5 76t-54.5 95t-62.5 99t-65.5 90q-31 -39 -61.5 -85t-59 -94t-55.5 -94 t-47 -87h-316z" />
<glyph unicode="&#x4b4;" horiz-adv-x="1923" d="M41 1147v272h1053v-272h-367v-877h569v1149h320v-1149h246v-649h-308v379h-1146v1147h-367z" />
<glyph unicode="&#x4b5;" horiz-adv-x="1427" d="M20 825v252h736v-252h-215v-575h358v827h305v-827h182v-557h-260v307h-890v825h-216z" />
<glyph unicode="&#x4b6;" horiz-adv-x="1482" d="M102 985v434h320v-418q0 -84 20.5 -136t58.5 -82.5t91 -42t117 -11.5q49 0 105 4t116 12v674h319v-1149h172v-649h-307v379h-184v475q-70 -8 -135.5 -12t-124.5 -4q-129 0 -234.5 23.5t-179.5 84t-114 161.5t-40 257z" />
<glyph unicode="&#x4b7;" horiz-adv-x="1206" d="M61 727v350h306v-348q0 -78 50 -108.5t140 -30.5q18 0 57 3t70 7v477h305v-827h197v-547h-260v297h-242v354q-41 -6 -89 -10t-73 -4q-104 0 -189 19.5t-145.5 63.5t-93.5 118.5t-33 185.5z" />
<glyph unicode="&#x4b8;" horiz-adv-x="1392" d="M102 985v434h320v-434q0 -104 33.5 -164.5t130.5 -81.5v230h198v-238q35 2 67 6t58 8v674h320v-1419h-320v473q-55 -8 -125 -12v-242h-198v242q-147 10 -241.5 51t-148 108.5t-74 159.5t-20.5 205z" />
<glyph unicode="&#x4b9;" horiz-adv-x="1150" d="M61 727v350h306v-348q0 -63 28.5 -94t100.5 -41v172h157v-174q27 2 49.5 3t40.5 5v477h306v-1077h-306v354q-23 -4 -45 -6l-45 -4v-174h-157v170q-104 4 -185.5 25.5t-136.5 67.5t-84 118t-29 176z" />
<glyph unicode="&#x4ba;" horiz-adv-x="1433" d="M164 0v1419h319v-473q51 8 111.5 11.5t124.5 3.5q180 0 295.5 -37t181.5 -105.5t90.5 -166t24.5 -218.5v-434h-320v434q0 66 -13 114t-47 79.5t-90.5 47t-144.5 15.5q-53 0 -111.5 -4t-101.5 -12v-674h-319z" />
<glyph unicode="&#x4bb;" horiz-adv-x="1206" d="M143 0v1540l306 49v-516q31 10 78.5 19.5t93.5 9.5q131 0 218 -36t139 -101.5t73.5 -155.5t21.5 -201v-608h-305v571q0 147 -38 209t-140 62q-41 0 -77 -7.5t-64 -15.5v-819h-306z" />
<glyph unicode="&#x4bc;" horiz-adv-x="1802" d="M20 981q0 35 7.5 81t17.5 79l242 -33q-6 -29 -8.5 -52.5t-2.5 -33.5q0 -43 29 -79t119 -52q23 139 80 244.5t142 175t193.5 104.5t235.5 35q141 0 256 -45t197 -134t127 -222.5t45 -309.5q0 -23 -5 -64.5t-9 -64.5h-941q10 -100 40 -169.5t80 -112.5t124 -62.5t174 -19.5 q61 0 115.5 10t103 24.5t86 30t64.5 27.5l82 -250q-25 -14 -70 -34.5t-106.5 -39t-137 -32t-157.5 -13.5q-184 0 -318.5 51.5t-223.5 140.5t-135 211t-54 265q-92 12 -164 35.5t-123 63.5t-78 100.5t-27 144.5zM756 872h612q-12 145 -88 226.5t-207 81.5q-78 0 -134 -25 t-94 -66.5t-59.5 -97.5t-29.5 -119z" />
<glyph unicode="&#x4bd;" horiz-adv-x="1449" d="M20 811q0 25 4.5 56.5t14.5 66.5l231 -29q-8 -29 -9 -59.5t-1 -40.5q0 -45 18.5 -76t81.5 -49q20 106 70.5 186t118 133.5t148.5 80t165 26.5q229 0 362.5 -140.5t133.5 -412.5q0 -27 -2 -58.5t-4 -56.5h-693q10 -94 88 -149.5t209 -55.5q84 0 165 15.5t132 38.5l41 -248 q-25 -12 -65.5 -24.5t-91 -21.5t-107.5 -15.5t-115 -6.5q-135 0 -237.5 37t-173 103.5t-109.5 156.5t-47 197q-174 27 -251 104.5t-77 241.5zM659 647h404q-2 39 -13.5 76t-35 65.5t-59 47t-89.5 18.5q-51 0 -88 -17.5t-61.5 -46t-38 -66.5t-19.5 -77z" />
<glyph unicode="&#x4be;" horiz-adv-x="1802" d="M20 981q0 35 7.5 81t17.5 79l242 -33q-6 -29 -8.5 -52.5t-2.5 -33.5q0 -43 29 -79t119 -52q23 139 80 244.5t142 175t193.5 104.5t235.5 35q141 0 256 -45t197 -134t127 -222.5t45 -309.5q0 -23 -5 -64.5t-9 -64.5h-941q10 -100 40 -169.5t80 -112.5t124 -62.5t174 -19.5 q61 0 115.5 10t103 24.5t86 30t64.5 27.5l82 -250q-23 -12 -60.5 -29.5t-88 -35t-113 -30.5t-131.5 -20v-352h-308v373q-125 29 -216 88t-152.5 143t-94 188.5t-38.5 223.5q-92 12 -164 35.5t-123 63.5t-78 100.5t-27 144.5zM756 872h612q-12 145 -88 226.5t-207 81.5 q-78 0 -134 -25t-94 -66.5t-59.5 -97.5t-29.5 -119z" />
<glyph unicode="&#x4bf;" horiz-adv-x="1449" d="M20 811q0 25 4.5 56.5t14.5 66.5l231 -29q-8 -29 -9 -59.5t-1 -40.5q0 -45 18.5 -76t81.5 -49q20 106 70.5 186t118 133.5t148.5 80t165 26.5q229 0 362.5 -140.5t133.5 -412.5q0 -27 -2 -58.5t-4 -56.5h-693q10 -94 88 -149.5t209 -55.5q84 0 165 15.5t132 38.5l41 -248 q-37 -20 -112.5 -36.5t-163.5 -25.5v-284h-260v293q-195 41 -294 170t-116 309q-174 27 -251 104.5t-77 241.5zM659 647h404q-2 39 -13.5 76t-35 65.5t-59 47t-89.5 18.5q-51 0 -88 -17.5t-61.5 -46t-38 -66.5t-19.5 -77z" />
<glyph unicode="&#x4c0;" horiz-adv-x="647" d="M164 0v1419h319v-1419h-319z" />
<glyph unicode="&#x4c1;" horiz-adv-x="2013" d="M20 0q59 104 127 208.5t138.5 202t145.5 182.5t151 152q-86 88 -160 172t-140.5 166t-130 165t-128.5 171h385q61 -86 115.5 -157.5t106.5 -139t105 -133t115 -139.5v569h311v-569q61 76 117.5 144.5t110 136t106.5 138t109 150.5h383q-74 -96 -138.5 -180t-130 -164 t-134 -159.5t-150.5 -167.5q166 -154 303 -345.5t256 -402.5h-357q-63 96 -118.5 178t-110.5 158t-114.5 148.5t-131.5 150.5v-635h-311v635q-74 -86 -133.5 -160t-113.5 -147.5t-109.5 -152.5t-118.5 -175h-355zM649 1831l211 55q16 -78 54.5 -110.5t89.5 -32.5 q53 0 91 29.5t54 111.5l209 -55q-6 -70 -38 -124.5t-80 -91t-109.5 -56t-126.5 -19.5q-66 0 -126.5 19.5t-109.5 57t-81 92t-38 124.5z" />
<glyph unicode="&#x4c2;" horiz-adv-x="1738" d="M20 0q102 166 211 305t232 270q-129 133 -234.5 261.5t-187.5 240.5h356q53 -76 128 -175t196 -251v426h297v-426q125 150 198.5 251.5t126.5 174.5h353q-76 -117 -178.5 -240.5t-239.5 -258.5q74 -78 132 -147t110.5 -136.5t99.5 -140t98 -154.5h-340q-154 231 -360 487 v-487h-297v487q-104 -139 -198.5 -262t-162.5 -225h-340zM512 1518l211 55q16 -78 54.5 -110.5t89.5 -32.5q53 0 91 29.5t54 111.5l209 -55q-6 -70 -38 -124.5t-80 -91t-109.5 -56t-126.5 -19.5q-66 0 -126.5 19.5t-109.5 57t-81 92t-38 124.5z" />
<glyph unicode="&#x4c3;" horiz-adv-x="1439" d="M164 0v1419h319v-577l475 577h379q-115 -135 -244.5 -290.5t-265.5 -299.5q106 -23 196.5 -72.5t156 -124.5t102.5 -177.5t37 -229.5q0 -129 -38 -238.5t-111.5 -191.5t-183 -128t-253.5 -46q-51 0 -76.5 2t-52.5 6l6 244q16 -2 34 -4t54 -2q80 0 139.5 29.5t99.5 79 t59.5 114t19.5 131.5q0 100 -34 170t-90 113t-132 62.5t-158 19.5q-61 0 -119 -6v-580h-319z" />
<glyph unicode="&#x4c4;" horiz-adv-x="1175" d="M143 0v1077h306v-432q35 39 82 99.5t95 124t92 119.5t70 89h330q-33 -39 -80 -97t-99 -120.5t-103.5 -124t-90.5 -106.5q162 -31 260.5 -152t98.5 -350q0 -135 -36 -231.5t-100.5 -158t-152.5 -90t-194 -28.5q-57 0 -119 6l16 230q25 -2 49.5 -3.5t46.5 -1.5 q111 0 162 73t51 198q0 82 -20.5 139t-57 93t-87 52.5t-109.5 16.5q-18 0 -50 -1t-54 -3v-418h-306z" />
<glyph unicode="&#x4c5;" horiz-adv-x="1699" d="M20 250q147 16 227.5 74.5t121.5 179.5q51 150 72.5 387t21.5 528h969v-1149h225q4 -164 -63.5 -339t-209.5 -318l-206 131q55 72 88.5 130t56.5 126h-211v1149h-348q-6 -137 -15.5 -275.5t-33 -267.5t-67.5 -242.5t-120.5 -198.5t-191.5 -136.5t-281 -57.5z" />
<glyph unicode="&#x4c6;" horiz-adv-x="1382" d="M20 236q104 20 162 58t86 97q23 51 36 119t19.5 142.5t7.5 152.5t1 149v123h809v-827h198q2 -86 -16 -169t-52 -160t-82 -143.5t-106 -117.5l-188 119q49 59 79 108.5t50 112.5h-188v827h-209q-2 -59 -5.5 -125.5t-11.5 -133t-21.5 -130t-33.5 -119.5q-25 -66 -62.5 -122 t-96 -101t-141.5 -74.5t-194 -39.5z" />
<glyph unicode="&#x4c7;" horiz-adv-x="1503" d="M164 0v1419h319v-542h537v542h319v-1384q0 -213 -94 -315.5t-305 -102.5q-29 0 -79 5t-99 22l41 247q31 -10 50 -13t58 -3q63 0 86 43t23 125v559h-537v-602h-319z" />
<glyph unicode="&#x4c8;" horiz-adv-x="1228" d="M143 0v1077h306v-401h331v401h305v-1050q0 -209 -99 -307.5t-286 -98.5q-29 0 -81 5t-101 22l41 248q31 -10 52.5 -13.5t60.5 -3.5q59 0 83.5 39t24.5 117v391h-331v-426h-306z" />
<glyph unicode="&#x4c9;" horiz-adv-x="1609" d="M164 0v1419h319v-542h537v542h319v-1149h228q4 -164 -63.5 -339t-209.5 -318l-207 131q55 72 89 130t57 126h-213v602h-537v-602h-319z" />
<glyph unicode="&#x4ca;" horiz-adv-x="1284" d="M143 0v1077h306v-401h317v401h305v-827h170q2 -86 -16.5 -169t-52 -160t-82 -143.5t-105.5 -117.5l-188 119q49 59 78.5 108.5t50.5 112.5h-160v426h-317v-426h-306z" />
<glyph unicode="&#x4cb;" horiz-adv-x="1392" d="M82 985v434h319v-418q0 -84 20.5 -136t58.5 -82.5t91.5 -42t116.5 -11.5q49 0 105.5 4t115.5 12v674h320v-1419h-260v-379h-307v588h247v266q-70 -8 -135 -12t-125 -4q-129 0 -234.5 23.5t-179 84t-113.5 161.5t-40 257z" />
<glyph unicode="&#x4cc;" d="M92 774v303h305v-301q0 -78 50.5 -108.5t140.5 -30.5q18 0 57 3t70 7v430h305v-1077h-246v-297h-260v537h201v161q-41 -6 -89 -10t-73 -4q-104 0 -189 19.5t-145.5 63.5t-93.5 118.5t-33 185.5z" />
<glyph unicode="&#x4cd;" horiz-adv-x="1949" d="M123 0q8 168 19.5 358.5t24.5 380t30.5 364.5t38.5 316h305q37 -68 85 -167t100 -214.5t103.5 -236.5t96.5 -228q45 106 96 227.5t103.5 237t100.5 215t85 166.5h291q16 -115 30.5 -253t26.5 -287.5t22.5 -304t18.5 -304.5h227q4 -164 -63.5 -339t-208.5 -318l-207 131 q55 72 89 130t56 126h-190q-6 207 -16.5 450.5t-30.5 491.5q-37 -86 -82 -190.5t-89 -209t-85 -199.5t-70 -163h-223q-29 68 -70 163t-85 199.5t-89 209t-82 190.5q-20 -248 -30.5 -491.5t-16.5 -450.5h-311z" />
<glyph unicode="&#x4ce;" horiz-adv-x="1626" d="M102 0q4 113 13.5 254t20.5 287.5t24.5 286t25.5 249.5h254q88 -143 162 -296.5t156 -338.5q86 197 168 364t147 271h258q10 -84 20.5 -184t19.5 -209t17.5 -219.5t14.5 -214.5h201q2 -86 -16.5 -169t-52.5 -160t-82 -143.5t-105 -117.5l-189 119q49 59 79 108.5 t50 112.5h-176q-4 160 -11 317.5t-14 305.5l-225 -496h-211l-225 494q-4 -72 -8 -156t-7 -169t-6.5 -162t-5.5 -134h-297z" />
<glyph unicode="&#x4cf;" horiz-adv-x="591" d="M143 0v1419h306v-1419h-306z" />
<glyph unicode="&#x4d0;" horiz-adv-x="1476" d="M20 0q80 229 152 423.5t140.5 367t135 327t138.5 301.5h305q70 -147 137.5 -301.5t136 -327t140 -367t151.5 -423.5h-342q-23 74 -50.5 151.5t-53.5 155.5h-553q-27 -78 -54.5 -155.5t-50.5 -151.5h-332zM530 561h404q-33 92 -63.5 176t-58.5 154t-48.5 123t-32.5 84 q-10 -31 -30.5 -84t-47 -123t-58.5 -154t-65 -176zM372 1831l211 55q16 -78 54.5 -110.5t89.5 -32.5q53 0 91 29.5t54 111.5l209 -55q-6 -70 -38 -124.5t-80 -91t-109.5 -56t-126.5 -19.5q-66 0 -126.5 19.5t-109.5 57t-81 92t-38 124.5z" />
<glyph unicode="&#x4d1;" horiz-adv-x="1132" d="M72 332q0 94 37.5 159.5t101 104.5t145.5 56.5t170 17.5q59 0 105.5 -5.5t75.5 -13.5v29q0 78 -47.5 125t-163.5 47q-78 0 -154 -11.5t-131 -31.5l-39 246q27 8 67 17t87 16.5t99 12.5t105 5q135 0 225.5 -31t144.5 -88t76.5 -139t22.5 -182v-635q-66 -14 -182.5 -34 t-281.5 -20q-104 0 -189.5 18.5t-147 60.5t-94 110t-32.5 166zM375 340q0 -72 48 -99.5t132 -27.5q45 0 86 2t66 6v232q-18 4 -55.5 8t-67.5 4q-43 0 -81 -5t-66.5 -19.5t-45 -39t-16.5 -61.5zM213 1518l211 55q16 -78 54.5 -110.5t89.5 -32.5q53 0 91 29.5t54 111.5 l209 -55q-6 -70 -38 -124.5t-80 -91t-109.5 -56t-126.5 -19.5q-66 0 -126.5 19.5t-109.5 57t-81 92t-38 124.5z" />
<glyph unicode="&#x4d2;" horiz-adv-x="1476" d="M20 0q80 229 152 423.5t140.5 367t135 327t138.5 301.5h305q70 -147 137.5 -301.5t136 -327t140 -367t151.5 -423.5h-342q-23 74 -50.5 151.5t-53.5 155.5h-553q-27 -78 -54.5 -155.5t-50.5 -151.5h-332zM530 561h404q-33 92 -63.5 176t-58.5 154t-48.5 123t-32.5 84 q-10 -31 -30.5 -84t-47 -123t-58.5 -154t-65 -176zM338 1717q0 72 47 113.5t110 41.5t110.5 -42t47.5 -113q0 -72 -47 -114t-111 -42q-63 0 -110 42t-47 114zM794 1717q0 72 47.5 113.5t110.5 41.5t110.5 -42t47.5 -113q0 -72 -47 -114t-111 -42q-63 0 -110.5 42t-47.5 114z " />
<glyph unicode="&#x4d3;" horiz-adv-x="1132" d="M72 332q0 94 37.5 159.5t101 104.5t145.5 56.5t170 17.5q59 0 105.5 -5.5t75.5 -13.5v29q0 78 -47.5 125t-163.5 47q-78 0 -154 -11.5t-131 -31.5l-39 246q27 8 67 17t87 16.5t99 12.5t105 5q135 0 225.5 -31t144.5 -88t76.5 -139t22.5 -182v-635q-66 -14 -182.5 -34 t-281.5 -20q-104 0 -189.5 18.5t-147 60.5t-94 110t-32.5 166zM375 340q0 -72 48 -99.5t132 -27.5q45 0 86 2t66 6v232q-18 4 -55.5 8t-67.5 4q-43 0 -81 -5t-66.5 -19.5t-45 -39t-16.5 -61.5zM158 1389q0 72 47 113.5t110 41.5t110.5 -42t47.5 -113q0 -72 -47 -114 t-111 -42q-63 0 -110 42t-47 114zM614 1389q0 72 47.5 113.5t110.5 41.5t110.5 -42t47.5 -113q0 -72 -47 -114t-111 -42q-63 0 -110.5 42t-47.5 114z" />
<glyph unicode="&#x4d4;" horiz-adv-x="2035" d="M20 0q250 449 465 800t408 619h1024v-268h-604v-279h532v-262h-532v-342h651v-268h-960v336h-451q-43 -78 -94 -168t-88 -168h-351zM682 590h322v520q-33 -47 -74 -112.5t-85 -136t-86 -142.5t-77 -129z" />
<glyph unicode="&#x4d5;" horiz-adv-x="1789" d="M72 332q0 94 37.5 159.5t101 104.5t145.5 56.5t170 17.5q59 0 105.5 -5.5t75.5 -13.5v35q0 78 -47.5 122t-163.5 44q-78 0 -154 -11.5t-131 -31.5l-39 246q27 8 67 17t87 16.5t99 12.5t105 5q63 0 114.5 -8t91.5 -25.5t73 -45.5t61 -66q70 78 158 111.5t189 33.5 q111 0 198.5 -36t151 -105.5t97.5 -173t34 -238.5q0 -27 -2 -58.5t-4 -56.5h-693q10 -94 88 -149.5t209 -55.5q84 0 165 15.5t132 38.5l41 -248q-25 -12 -65.5 -24.5t-91 -21.5t-107.5 -15.5t-115 -6.5q-121 0 -211 27t-153 70q-154 -90 -356 -91q-104 0 -189.5 18.5 t-147 60.5t-94 110t-32.5 166zM375 340q0 -72 48 -99.5t132 -27.5q63 0 115.5 7t91.5 24q-29 74 -39 120t-12 93q-29 4 -68 6t-59 2q-43 0 -81 -5t-66.5 -19.5t-45 -39t-16.5 -61.5zM997 647h404q-2 39 -13.5 76t-35 65.5t-59.5 47t-89 18.5q-51 0 -88 -17.5t-61.5 -46 t-38 -66.5t-19.5 -77z" />
<glyph unicode="&#x4d6;" horiz-adv-x="1241" d="M164 0v1419h958v-268h-639v-279h568v-262h-568v-342h686v-268h-1005zM299 1831l211 55q16 -78 54.5 -110.5t89.5 -32.5q53 0 91 29.5t54 111.5l209 -55q-6 -70 -38 -124.5t-80 -91t-109.5 -56t-126.5 -19.5q-66 0 -126.5 19.5t-109.5 57t-81 92t-38 124.5z" />
<glyph unicode="&#x4d7;" horiz-adv-x="1196" d="M92 530q0 143 44 251t116 179.5t165 108.5t191 37q229 0 362.5 -140.5t133.5 -412.5q0 -27 -2 -58.5t-4 -56.5h-692q10 -94 87.5 -149.5t208.5 -55.5q84 0 165 15.5t132 38.5l41 -248q-25 -12 -65.5 -24.5t-90.5 -21.5t-107.5 -15.5t-114.5 -6.5q-145 0 -253 43 t-178.5 118t-104.5 177t-34 221zM406 647h403q-2 39 -13.5 76t-35 65.5t-59 47t-89.5 18.5q-51 0 -88 -17.5t-61.5 -46t-37.5 -66.5t-19 -77zM268 1518l211 55q16 -78 54.5 -110.5t89.5 -32.5q53 0 91 29.5t54 111.5l209 -55q-6 -70 -38 -124.5t-80 -91t-109.5 -56 t-126.5 -19.5q-66 0 -126.5 19.5t-109.5 57t-81 92t-38 124.5z" />
<glyph unicode="&#x4d8;" horiz-adv-x="1495" d="M102 682q0 23 5.5 64.5t9.5 64.5h940q-10 100 -40 170t-80 113t-124 62.5t-174 19.5q-61 0 -115.5 -10.5t-102.5 -25t-86 -29.5t-65 -28l-82 250q25 14 70 35t106.5 39t136 31.5t158.5 13.5q195 0 334.5 -56.5t228.5 -155.5t130 -233.5t41 -289.5q0 -186 -49.5 -326.5 t-138.5 -234t-211 -139.5t-267 -46q-141 0 -256 45t-196.5 134.5t-127 222.5t-45.5 309zM434 549q12 -145 88 -226t207 -81q78 0 134.5 24.5t94 66.5t59 97t30.5 119h-613z" />
<glyph unicode="&#x4d9;" horiz-adv-x="1196" d="M92 524q0 27 2 58.5t4 56.5h693q-10 94 -88 149.5t-209 55.5q-86 0 -166 -15.5t-131 -37.5l-41 247q25 12 65.5 24.5t90.5 22t107.5 15.5t115.5 6q145 0 252.5 -43t178 -118t104.5 -177t34 -221q0 -143 -44 -251t-116 -180.5t-165 -108.5t-191 -36q-229 0 -362.5 139.5 t-133.5 413.5zM387 430q2 -39 13.5 -76t34 -66.5t59 -47t90.5 -17.5q51 0 88 17.5t61.5 46t37.5 65.5t20 78h-404z" />
<glyph unicode="&#x4da;" horiz-adv-x="1495" d="M102 682q0 23 5.5 64.5t9.5 64.5h940q-10 100 -40 170t-80 113t-124 62.5t-174 19.5q-61 0 -115.5 -10.5t-102.5 -25t-86 -29.5t-65 -28l-82 250q25 14 70 35t106.5 39t136 31.5t158.5 13.5q195 0 334.5 -56.5t228.5 -155.5t130 -233.5t41 -289.5q0 -186 -49.5 -326.5 t-138.5 -234t-211 -139.5t-267 -46q-141 0 -256 45t-196.5 134.5t-127 222.5t-45.5 309zM434 549q12 -145 88 -226t207 -81q78 0 134.5 24.5t94 66.5t59 97t30.5 119h-613zM328 1717q0 72 47 113.5t110 41.5t110.5 -42t47.5 -113q0 -72 -47 -114t-111 -42q-63 0 -110 42 t-47 114zM784 1717q0 72 47.5 113.5t110.5 41.5t110.5 -42t47.5 -113q0 -72 -47 -114t-111 -42q-63 0 -110.5 42t-47.5 114z" />
<glyph unicode="&#x4db;" horiz-adv-x="1196" d="M92 524q0 27 2 58.5t4 56.5h693q-10 94 -88 149.5t-209 55.5q-86 0 -166 -15.5t-131 -37.5l-41 247q25 12 65.5 24.5t90.5 22t107.5 15.5t115.5 6q145 0 252.5 -43t178 -118t104.5 -177t34 -221q0 -143 -44 -251t-116 -180.5t-165 -108.5t-191 -36q-229 0 -362.5 139.5 t-133.5 413.5zM387 430q2 -39 13.5 -76t34 -66.5t59 -47t90.5 -17.5q51 0 88 17.5t61.5 46t37.5 65.5t20 78h-404zM203 1389q0 72 47 113.5t110 41.5t110.5 -42t47.5 -113q0 -72 -47 -114t-111 -42q-63 0 -110 42t-47 114zM659 1389q0 72 47.5 113.5t110.5 41.5t110.5 -42 t47.5 -113q0 -72 -47 -114t-111 -42q-63 0 -110.5 42t-47.5 114z" />
<glyph unicode="&#x4dc;" horiz-adv-x="2013" d="M20 0q59 104 127 208.5t138.5 202t145.5 182.5t151 152q-86 88 -160 172t-140.5 166t-130 165t-128.5 171h385q61 -86 115.5 -157.5t106.5 -139t105 -133t115 -139.5v569h311v-569q61 76 117.5 144.5t110 136t106.5 138t109 150.5h383q-74 -96 -138.5 -180t-130 -164 t-134 -159.5t-150.5 -167.5q166 -154 303 -345.5t256 -402.5h-357q-63 96 -118.5 178t-110.5 158t-114.5 148.5t-131.5 150.5v-635h-311v635q-74 -86 -133.5 -160t-113.5 -147.5t-109.5 -152.5t-118.5 -175h-355zM621 1717q0 72 47 113.5t110 41.5t110.5 -42t47.5 -113 q0 -72 -47 -114t-111 -42q-63 0 -110 42t-47 114zM1077 1717q0 72 47.5 113.5t110.5 41.5t110.5 -42t47.5 -113q0 -72 -47 -114t-111 -42q-63 0 -110.5 42t-47.5 114z" />
<glyph unicode="&#x4dd;" horiz-adv-x="1738" d="M20 0q102 166 211 305t232 270q-129 133 -234.5 261.5t-187.5 240.5h356q53 -76 128 -175t196 -251v426h297v-426q125 150 198.5 251.5t126.5 174.5h353q-76 -117 -178.5 -240.5t-239.5 -258.5q74 -78 132 -147t110.5 -136.5t99.5 -140t98 -154.5h-340q-154 231 -360 487 v-487h-297v487q-104 -139 -198.5 -262t-162.5 -225h-340zM484 1389q0 72 47 113.5t110 41.5t110.5 -42t47.5 -113q0 -72 -47 -114t-111 -42q-63 0 -110 42t-47 114zM940 1389q0 72 47.5 113.5t110.5 41.5t110.5 -42t47.5 -113q0 -72 -47 -114t-111 -42q-63 0 -110.5 42 t-47.5 114z" />
<glyph unicode="&#x4de;" horiz-adv-x="1249" d="M51 86l94 250q29 -12 71 -27.5t93 -30t106.5 -24.5t110.5 -10q135 0 218 39t83 135q0 59 -26.5 96t-72.5 56.5t-108.5 26.5t-136.5 7h-192v262h215q55 0 103 8.5t84 29t56.5 53t20.5 81.5q0 70 -55.5 105t-155.5 35q-113 0 -196.5 -26t-159.5 -69l-103 252q82 51 198 83 t263 32q115 0 213 -25.5t170 -76t112 -127t40 -179.5q0 -78 -42 -154.5t-128 -129.5q47 -25 89 -57.5t73.5 -75.5t50 -97.5t18.5 -121.5q0 -227 -160.5 -331t-447.5 -104q-72 0 -142.5 10.5t-135 26t-121 35.5t-99.5 43zM187 1743q0 72 47 113.5t110 41.5t110.5 -42 t47.5 -113q0 -72 -47 -114t-111 -42q-63 0 -110 42t-47 114zM643 1743q0 72 47.5 113.5t110.5 41.5t110.5 -42t47.5 -113q0 -72 -47 -114t-111 -42q-63 0 -110.5 42t-47.5 114z" />
<glyph unicode="&#x4df;" horiz-adv-x="1013" d="M61 45l56 238q43 -16 132 -39t202 -23q184 0 184 103q0 35 -14.5 56t-38 33.5t-54 16.5t-61.5 4h-240v217h242q74 0 103.5 30t29.5 69t-33.5 70.5t-124.5 31.5q-90 0 -169.5 -16.5t-129.5 -30.5l-53 237q72 27 166 43.5t205 16.5q84 0 164 -15.5t142 -51.5t100 -94 t38 -146q0 -80 -36.5 -136.5t-104.5 -93.5q90 -39 133 -102.5t43 -161.5q0 -92 -39 -154.5t-104.5 -101.5t-149.5 -56.5t-174 -17.5q-53 0 -110.5 5.5t-111.5 14.5t-103.5 23.5t-88.5 30.5zM84 1389q0 72 47 113.5t110 41.5t110.5 -42t47.5 -113q0 -72 -47 -114t-111 -42 q-63 0 -110 42t-47 114zM540 1389q0 72 47.5 113.5t110.5 41.5t110.5 -42t47.5 -113q0 -72 -47 -114t-111 -42q-63 0 -110.5 42t-47.5 114z" />
<glyph unicode="&#x4e0;" horiz-adv-x="1257" d="M41 92l94 254q68 -35 171.5 -69.5t221.5 -34.5q135 0 211 42t76 140q0 59 -25.5 98t-71.5 62.5t-110.5 33t-142.5 9.5h-100v176q39 39 83 85t89 93t86 91t71 81h-579v266h993v-190q-25 -31 -68 -80t-94 -104.5t-104.5 -113t-100.5 -106.5q219 -39 311.5 -139t92.5 -266 q0 -117 -44 -202t-125 -140t-194.5 -82t-251.5 -27q-86 0 -161.5 13.5t-139 32t-111.5 40t-77 37.5z" />
<glyph unicode="&#x4e1;" horiz-adv-x="1054" d="M10 -297l68 244q33 -14 74 -26.5t85 -21t88 -12.5t85 -4q127 0 191.5 53.5t64.5 147.5q0 106 -78 157.5t-223 51.5h-111v178q33 37 72 83t76.5 93t74.5 93t66 83h-480v254h867v-209q-25 -33 -59.5 -75.5t-75.5 -91t-85 -101.5t-89 -108q74 -20 138 -56.5t111.5 -88.5 t75 -120.5t27.5 -154.5q0 -225 -144.5 -338t-398.5 -113q-57 0 -116.5 6t-116 17.5t-104.5 27t-83 31.5z" />
<glyph unicode="&#x4e2;" horiz-adv-x="1548" d="M164 0v1419h317v-837q74 111 158 230.5t169 231t167 210t149 165.5h260v-1419h-315v930q-180 -211 -340 -448.5t-297 -481.5h-268zM481 1589v209h660v-209h-660z" />
<glyph unicode="&#x4e3;" horiz-adv-x="1267" d="M143 0v1077h306q0 -102 -1.5 -195.5t-3.5 -169t-4 -132t-2 -86.5q123 180 226.5 323.5t201.5 259.5h258v-1077h-307q0 102 2 203.5t4 187.5t5 150.5t3 95.5q-59 -84 -118.5 -170t-113.5 -169t-102 -159t-85 -139h-269zM303 1276v209h660v-209h-660z" />
<glyph unicode="&#x4e4;" horiz-adv-x="1548" d="M164 0v1419h317v-837q74 111 158 230.5t169 231t167 210t149 165.5h260v-1419h-315v930q-180 -211 -340 -448.5t-297 -481.5h-268zM412 1717q0 72 47 113.5t110 41.5t110.5 -42t47.5 -113q0 -72 -47 -114t-111 -42q-63 0 -110 42t-47 114zM868 1717q0 72 47.5 113.5 t110.5 41.5t110.5 -42t47.5 -113q0 -72 -47 -114t-111 -42q-63 0 -110.5 42t-47.5 114z" />
<glyph unicode="&#x4e5;" horiz-adv-x="1267" d="M143 0v1077h306q0 -102 -1.5 -195.5t-3.5 -169t-4 -132t-2 -86.5q123 180 226.5 323.5t201.5 259.5h258v-1077h-307q0 102 2 203.5t4 187.5t5 150.5t3 95.5q-59 -84 -118.5 -170t-113.5 -169t-102 -159t-85 -139h-269zM264 1389q0 72 47 113.5t110 41.5t110.5 -42 t47.5 -113q0 -72 -47 -114t-111 -42q-63 0 -110 42t-47 114zM720 1389q0 72 47.5 113.5t110.5 41.5t110.5 -42t47.5 -113q0 -72 -47 -114t-111 -42q-63 0 -110.5 42t-47.5 114z" />
<glyph unicode="&#x4e6;" horiz-adv-x="1617" d="M102 711q0 182 57.5 320t155 232.5t225.5 141.5t269 47q145 0 274 -47t225.5 -141.5t152 -232.5t55.5 -320t-54.5 -320.5t-148.5 -231.5t-224.5 -140.5t-279.5 -47.5q-145 0 -274 47.5t-225.5 140.5t-152 231.5t-55.5 320.5zM432 711q0 -104 25.5 -188.5t74 -145t118 -93 t159.5 -32.5q88 0 158.5 32.5t119 93t74 144.5t25.5 189q0 104 -25.5 189t-74 145.5t-119 93t-158.5 32.5q-90 0 -159.5 -33.5t-118 -94t-74 -145.5t-25.5 -187zM430 1717q0 72 47 113.5t110 41.5t110.5 -42t47.5 -113q0 -72 -47 -114t-111 -42q-63 0 -110 42t-47 114z M886 1717q0 72 47.5 113.5t110.5 41.5t110.5 -42t47.5 -113q0 -72 -47 -114t-111 -42q-63 0 -110.5 42t-47.5 114z" />
<glyph unicode="&#x4e7;" horiz-adv-x="1243" d="M92 541q0 127 40 231.5t110.5 178t168 114.5t212.5 41q117 0 214 -41t166.5 -114.5t108.5 -178t39 -231.5t-37 -232.5t-106.5 -180.5t-167 -116t-217.5 -41q-119 0 -216.5 41t-167 116t-108.5 180.5t-39 232.5zM403 541q0 -141 57.5 -224.5t162.5 -83.5q104 0 160.5 83 t56.5 225q0 141 -56.5 222t-160.5 81t-162 -81t-58 -222zM242 1389q0 72 47 113.5t110 41.5t110.5 -42t47.5 -113q0 -72 -47 -114t-111 -42q-63 0 -110 42t-47 114zM698 1389q0 72 47.5 113.5t110.5 41.5t110.5 -42t47.5 -113q0 -72 -47 -114t-111 -42q-63 0 -110.5 42 t-47.5 114z" />
<glyph unicode="&#x4e8;" horiz-adv-x="1617" d="M102 711q0 182 57.5 320t155 232.5t225.5 141.5t269 47q145 0 274 -47t225.5 -141.5t152 -232.5t55.5 -320t-54.5 -320.5t-148.5 -231.5t-224.5 -140.5t-279.5 -47.5q-145 0 -274 47.5t-225.5 140.5t-152 231.5t-55.5 320.5zM440 596q25 -160 120 -252t249 -92t248 92 t119 252h-736zM440 821h738q-25 160 -120 255t-249 95t-249 -95t-120 -255z" />
<glyph unicode="&#x4e9;" horiz-adv-x="1243" d="M92 541q0 127 40 231.5t110.5 178t168 114.5t212.5 41q129 0 227 -46t164.5 -124t101.5 -180.5t35 -214.5q0 -127 -37 -232.5t-106.5 -180.5t-167 -116t-217.5 -41q-129 0 -228.5 45t-167 123t-101.5 181.5t-34 220.5zM393 633h455q-8 41 -24.5 82t-43 72.5t-65.5 52 t-92 20.5q-92 0 -152 -58t-78 -169zM395 449q18 -104 76.5 -168t151.5 -64q92 0 150 60.5t75 171.5h-453z" />
<glyph unicode="&#x4ea;" horiz-adv-x="1617" d="M102 711q0 182 57.5 320t155 232.5t225.5 141.5t269 47q145 0 274 -47t225.5 -141.5t152 -232.5t55.5 -320t-54.5 -320.5t-148.5 -231.5t-224.5 -140.5t-279.5 -47.5q-145 0 -274 47.5t-225.5 140.5t-152 231.5t-55.5 320.5zM440 596q25 -160 120 -252t249 -92t248 92 t119 252h-736zM440 821h738q-25 160 -120 255t-249 95t-249 -95t-120 -255zM430 1717q0 72 47 113.5t110 41.5t110.5 -42t47.5 -113q0 -72 -47 -114t-111 -42q-63 0 -110 42t-47 114zM886 1717q0 72 47.5 113.5t110.5 41.5t110.5 -42t47.5 -113q0 -72 -47 -114t-111 -42 q-63 0 -110.5 42t-47.5 114z" />
<glyph unicode="&#x4eb;" horiz-adv-x="1243" d="M92 541q0 127 40 231.5t110.5 178t168 114.5t212.5 41q129 0 227 -46t164.5 -124t101.5 -180.5t35 -214.5q0 -127 -37 -232.5t-106.5 -180.5t-167 -116t-217.5 -41q-129 0 -228.5 45t-167 123t-101.5 181.5t-34 220.5zM393 633h455q-8 41 -24.5 82t-43 72.5t-65.5 52 t-92 20.5q-92 0 -152 -58t-78 -169zM395 449q18 -104 76.5 -168t151.5 -64q92 0 150 60.5t75 171.5h-453zM221 1389q0 72 47 113.5t110 41.5t110.5 -42t47.5 -113q0 -72 -47 -114t-111 -42q-63 0 -110 42t-47 114zM677 1389q0 72 47.5 113.5t110.5 41.5t110.5 -42t47.5 -113 q0 -72 -47 -114t-111 -42q-63 0 -110.5 42t-47.5 114z" />
<glyph unicode="&#x4ec;" horiz-adv-x="1394" d="M82 92l102 256q29 -12 68 -29.5t87 -33t106.5 -25.5t123.5 -10q164 0 262.5 85t122.5 251h-594v270h588q-25 164 -120 242t-259 78q-121 0 -221 -30t-158 -59l-94 250q117 61 241 89t245 28q150 0 278.5 -45t225 -136t151.5 -231.5t55 -330.5q0 -197 -56 -336 t-153.5 -229.5t-228.5 -132.5t-279 -42q-141 0 -258.5 31t-234.5 90zM248 1717q0 72 47 113.5t110 41.5t110.5 -42t47.5 -113q0 -72 -47 -114t-111 -42q-63 0 -110 42t-47 114zM704 1717q0 72 47.5 113.5t110.5 41.5t110.5 -42t47.5 -113q0 -72 -47 -114t-111 -42 q-63 0 -110.5 42t-47.5 114z" />
<glyph unicode="&#x4ed;" horiz-adv-x="1067" d="M59 43l58 240q59 -20 139 -37t152 -17q51 0 98 10.5t85 35t63.5 64.5t33.5 97h-409v219h407q-16 115 -89 158t-177 43q-78 0 -140.5 -13.5t-129.5 -33.5l-58 235q92 33 178 47.5t166 14.5q125 0 227.5 -38t176 -110.5t114.5 -177t41 -235.5q0 -137 -41 -243.5 t-113.5 -178.5t-174 -110t-224.5 -38q-102 0 -191.5 14.5t-191.5 53.5zM119 1389q0 72 47 113.5t110 41.5t110.5 -42t47.5 -113q0 -72 -47 -114t-111 -42q-63 0 -110 42t-47 114zM575 1389q0 72 47.5 113.5t110.5 41.5t110.5 -42t47.5 -113q0 -72 -47 -114t-111 -42 q-63 0 -110.5 42t-47.5 114z" />
<glyph unicode="&#x4ee;" horiz-adv-x="1335" d="M41 1419h354q33 -80 73 -171t85 -188t91 -194.5t89 -189.5q66 180 125.5 368.5t114.5 374.5h342q-53 -158 -104.5 -295t-100.5 -260t-97 -233.5t-93 -214.5q-59 -135 -125 -222.5t-135.5 -136.5t-141.5 -67.5t-145 -18.5q-70 0 -144.5 13.5t-140.5 38.5l57 256 q100 -37 199 -37q63 0 121.5 28.5t112.5 122.5q-84 131 -161 269.5t-145.5 272.5t-127 258t-103.5 226zM362 1589v209h660v-209h-660z" />
<glyph unicode="&#x4ef;" horiz-adv-x="1120" d="M10 -336l53 244q47 -16 84 -22.5t78 -6.5q82 0 126 44t75 122q-104 205 -208.5 460t-197.5 572h324q20 -80 48 -173t58.5 -188t62.5 -185.5t60 -163.5q27 74 55.5 164t56.5 185t53.5 188t45.5 173h316q-92 -311 -192.5 -583.5t-219.5 -528.5q-43 -92 -86 -156.5 t-94 -106.5t-115.5 -61.5t-150.5 -19.5q-72 0 -132.5 13.5t-99.5 29.5zM241 1276v209h660v-209h-660z" />
<glyph unicode="&#x4f0;" horiz-adv-x="1335" d="M41 1419h354q33 -80 73 -171t85 -188t91 -194.5t89 -189.5q66 180 125.5 368.5t114.5 374.5h342q-53 -158 -104.5 -295t-100.5 -260t-97 -233.5t-93 -214.5q-59 -135 -125 -222.5t-135.5 -136.5t-141.5 -67.5t-145 -18.5q-70 0 -144.5 13.5t-140.5 38.5l57 256 q100 -37 199 -37q63 0 121.5 28.5t112.5 122.5q-84 131 -161 269.5t-145.5 272.5t-127 258t-103.5 226zM314 1717q0 72 47 113.5t110 41.5t110.5 -42t47.5 -113q0 -72 -47 -114t-111 -42q-63 0 -110 42t-47 114zM770 1717q0 72 47.5 113.5t110.5 41.5t110.5 -42t47.5 -113 q0 -72 -47 -114t-111 -42q-63 0 -110.5 42t-47.5 114z" />
<glyph unicode="&#x4f1;" horiz-adv-x="1120" d="M10 -336l53 244q47 -16 84 -22.5t78 -6.5q82 0 126 44t75 122q-104 205 -208.5 460t-197.5 572h324q20 -80 48 -173t58.5 -188t62.5 -185.5t60 -163.5q27 74 55.5 164t56.5 185t53.5 188t45.5 173h316q-92 -311 -192.5 -583.5t-219.5 -528.5q-43 -92 -86 -156.5 t-94 -106.5t-115.5 -61.5t-150.5 -19.5q-72 0 -132.5 13.5t-99.5 29.5zM170 1389q0 72 47 113.5t110 41.5t110.5 -42t47.5 -113q0 -72 -47 -114t-111 -42q-63 0 -110 42t-47 114zM626 1389q0 72 47.5 113.5t110.5 41.5t110.5 -42t47.5 -113q0 -72 -47 -114t-111 -42 q-63 0 -110.5 42t-47.5 114z" />
<glyph unicode="&#x4f2;" horiz-adv-x="1335" d="M41 1419h354q33 -80 73 -171t85 -188t91 -194.5t89 -189.5q66 180 125.5 368.5t114.5 374.5h342q-53 -158 -104.5 -295t-100.5 -260t-97 -233.5t-93 -214.5q-59 -135 -125 -222.5t-135.5 -136.5t-141.5 -67.5t-145 -18.5q-70 0 -144.5 13.5t-140.5 38.5l57 256 q100 -37 199 -37q63 0 121.5 28.5t112.5 122.5q-84 131 -161 269.5t-145.5 272.5t-127 258t-103.5 226zM338 1618l246 350l178 -143l-287 -311zM752 1618l245 350l179 -143l-287 -311z" />
<glyph unicode="&#x4f3;" horiz-adv-x="1120" d="M10 -336l53 244q47 -16 84 -22.5t78 -6.5q82 0 126 44t75 122q-104 205 -208.5 460t-197.5 572h324q20 -80 48 -173t58.5 -188t62.5 -185.5t60 -163.5q27 74 55.5 164t56.5 185t53.5 188t45.5 173h316q-92 -311 -192.5 -583.5t-219.5 -528.5q-43 -92 -86 -156.5 t-94 -106.5t-115.5 -61.5t-150.5 -19.5q-72 0 -132.5 13.5t-99.5 29.5zM201 1286l246 350l178 -143l-287 -311zM615 1286l245 350l179 -143l-287 -311z" />
<glyph unicode="&#x4f4;" horiz-adv-x="1392" d="M82 985v434h319v-418q0 -84 20.5 -136t58.5 -82.5t91.5 -42t116.5 -11.5q49 0 105.5 4t115.5 12v674h320v-1419h-320v475q-70 -8 -135 -12t-125 -4q-129 0 -234.5 23.5t-179 84t-113.5 161.5t-40 257zM273 1717q0 72 47 113.5t110 41.5t110.5 -42t47.5 -113 q0 -72 -47 -114t-111 -42q-63 0 -110 42t-47 114zM729 1717q0 72 47.5 113.5t110.5 41.5t110.5 -42t47.5 -113q0 -72 -47 -114t-111 -42q-63 0 -110.5 42t-47.5 114z" />
<glyph unicode="&#x4f5;" d="M92 727v350h305v-348q0 -78 50.5 -108.5t140.5 -30.5q18 0 57 3t70 7v477h305v-1077h-305v354q-41 -6 -89 -10t-73 -4q-104 0 -189 19.5t-145.5 63.5t-93.5 118.5t-33 185.5zM172 1389q0 72 47 113.5t110 41.5t110.5 -42t47.5 -113q0 -72 -47 -114t-111 -42 q-63 0 -110 42t-47 114zM628 1389q0 72 47.5 113.5t110.5 41.5t110.5 -42t47.5 -113q0 -72 -47 -114t-111 -42q-63 0 -110.5 42t-47.5 114z" />
<glyph unicode="&#x4f6;" horiz-adv-x="1214" d="M164 0v1419h969v-270h-650v-879h256v-649h-307v379h-268z" />
<glyph unicode="&#x4f7;" horiz-adv-x="927" d="M143 0v1077h764v-250h-458v-577h200v-547h-260v297h-246z" />
<glyph unicode="&#x4f8;" horiz-adv-x="1898" d="M164 33v1386h319v-471q23 2 42 2h42q334 0 502 -118.5t168 -366.5q0 -119 -46 -209t-131 -151.5t-207 -92t-271 -30.5q-86 0 -195.5 12t-222.5 39zM483 254q23 -2 52 -2h69q63 0 118.5 10t97.5 35t65.5 65.5t23.5 102.5q0 125 -93 170t-269 45h-29q-18 0 -35 -2v-424z M1415 0v1419h320v-1419h-320zM578 1708q0 72 47 113.5t110 41.5t110.5 -42t47.5 -113q0 -72 -47 -114t-111 -42q-63 0 -110 42t-47 114zM1034 1708q0 72 47.5 113.5t110.5 41.5t110.5 -42t47.5 -113q0 -72 -47 -114t-111 -42q-63 0 -110.5 42t-47.5 114z" />
<glyph unicode="&#x4f9;" horiz-adv-x="1687" d="M143 33v1044h306v-383q29 8 74.5 13.5t105.5 5.5q94 0 177 -22.5t144.5 -69t97 -117t35.5 -164.5t-32.5 -162.5t-94 -113t-146.5 -66t-189 -21.5q-135 0 -248 13.5t-230 42.5zM449 221q25 -4 65.5 -6t85.5 -2q84 0 132 31.5t48 103.5q0 37 -16 62.5t-45 41t-67 21.5 t-81 6q-31 0 -67.5 -4t-54.5 -8v-246zM1239 0v1077h305v-1077h-305zM469 1389q0 72 47 113.5t110 41.5t110.5 -42t47.5 -113q0 -72 -47 -114t-111 -42q-63 0 -110 42t-47 114zM925 1389q0 72 47.5 113.5t110.5 41.5t110.5 -42t47.5 -113q0 -72 -47 -114t-111 -42 q-63 0 -110.5 42t-47.5 114z" />
<glyph unicode="&#x2000;" horiz-adv-x="1030" />
<glyph unicode="&#x2001;" horiz-adv-x="2060" />
<glyph unicode="&#x2002;" horiz-adv-x="1030" />
<glyph unicode="&#x2003;" horiz-adv-x="2060" />
<glyph unicode="&#x2004;" horiz-adv-x="686" />
<glyph unicode="&#x2005;" horiz-adv-x="514" />
<glyph unicode="&#x2006;" horiz-adv-x="342" />
<glyph unicode="&#x2007;" horiz-adv-x="342" />
<glyph unicode="&#x2008;" horiz-adv-x="256" />
<glyph unicode="&#x2009;" horiz-adv-x="411" />
<glyph unicode="&#x200a;" horiz-adv-x="112" />
<glyph unicode="&#x2010;" horiz-adv-x="696" d="M51 473v277h594v-277h-594z" />
<glyph unicode="&#x2011;" horiz-adv-x="696" d="M51 473v277h594v-277h-594z" />
<glyph unicode="&#x2012;" horiz-adv-x="696" d="M51 473v277h594v-277h-594z" />
<glyph unicode="&#x2013;" horiz-adv-x="1024" d="M0 485v254h1024v-254h-1024z" />
<glyph unicode="&#x2014;" horiz-adv-x="2048" d="M0 485v254h2048v-254h-2048z" />
<glyph unicode="&#x2018;" horiz-adv-x="497" d="M82 1118q0 137 49 261t121 210l215 -49q-39 -88 -62.5 -198.5t-23.5 -211.5v-17q0 -13 1 -30.5t2 -36t3 -32.5h-297q-4 29 -6 59.5t-2 44.5z" />
<glyph unicode="&#x2019;" horiz-adv-x="497" d="M31 1044q39 88 62.5 199t23.5 211v17q0 13 -1 31l-2 36t-3 33h297q4 -29 6 -59.5t2 -45.5q0 -137 -49.5 -261t-120.5 -210z" />
<glyph unicode="&#x201a;" horiz-adv-x="497" d="M31 -211q39 88 62.5 199t23.5 211v17q0 13 -1 31l-2 36t-3 33h297q4 -29 6 -59.5t2 -45.5q0 -137 -49.5 -261t-120.5 -210z" />
<glyph unicode="&#x201c;" horiz-adv-x="929" d="M82 1118q0 137 49 261t121 210l207 -47q-39 -88 -62.5 -199.5t-23.5 -212.5v-17q0 -13 1 -30.5t2 -36t3 -32.5h-289q-4 29 -6 59.5t-2 44.5zM522 1118q0 137 49.5 261t120.5 210l207 -47q-39 -88 -62.5 -199.5t-23.5 -212.5v-17q0 -13 1 -30.5t2 -36t3 -32.5h-289 q-4 29 -6 59.5t-2 44.5z" />
<glyph unicode="&#x201d;" horiz-adv-x="929" d="M31 1042q39 88 62.5 200t23.5 212v17q0 13 -1 31l-2 36t-3 33h288q4 -29 6.5 -59.5t2.5 -45.5q0 -137 -49.5 -261t-120.5 -210zM471 1042q39 88 62.5 200t23.5 212v17q0 13 -1 31l-2 36t-3 33h289q4 -29 6 -59.5t2 -45.5q0 -137 -49 -261t-121 -210z" />
<glyph unicode="&#x201e;" horiz-adv-x="929" d="M31 -213q39 88 62.5 200t23.5 212v17q0 13 -1 31l-2 36t-3 33h288q4 -29 6.5 -59.5t2.5 -45.5q0 -137 -49.5 -261t-120.5 -210zM471 -213q39 88 62.5 200t23.5 212v17q0 13 -1 31l-2 36t-3 33h289q4 -29 6 -59.5t2 -45.5q0 -137 -49 -261t-121 -210z" />
<glyph unicode="&#x2022;" horiz-adv-x="745" d="M78 723q0 57 20.5 110.5t59.5 93.5t93 63.5t122 23.5t122 -23.5t93 -63.5t59.5 -93.5t20.5 -110.5q0 -59 -20.5 -111.5t-59.5 -92.5t-93.5 -63.5t-121.5 -23.5q-68 0 -122 23.5t-93 63.5t-59.5 92.5t-20.5 111.5z" />
<glyph unicode="&#x2026;" horiz-adv-x="2048" d="M122 162q0 92 58.5 140t132.5 48t132 -48t58 -140t-58 -140.5t-132 -48.5t-132.5 48.5t-58.5 140.5zM833 162q0 92 58.5 140t132.5 48t132 -48t58 -140t-58 -140.5t-132 -48.5t-132.5 48.5t-58.5 140.5zM1544 162q0 92 58.5 140t132.5 48t132 -48t58 -140t-58 -140.5 t-132 -48.5t-132.5 48.5t-58.5 140.5z" />
<glyph unicode="&#x202f;" horiz-adv-x="411" />
<glyph unicode="&#x2039;" horiz-adv-x="669" d="M41 582l336 491l231 -108l-207 -383l207 -383l-231 -109z" />
<glyph unicode="&#x203a;" horiz-adv-x="669" d="M61 199l207 383l-207 383l232 108l336 -491l-336 -492z" />
<glyph unicode="&#x205f;" horiz-adv-x="514" />
<glyph unicode="&#x20ac;" d="M94 446v203h129q-2 23 -2 35v29v35q0 18 2 34h-129v203h156q53 229 202.5 346t383.5 117q92 0 157.5 -14.5t130.5 -38.5l-63 -238q-49 16 -100.5 27.5t-126.5 11.5q-123 0 -192 -53t-99 -158h454l-39 -203h-442q-2 -23 -2 -38v-31v-29q0 -12 2 -35h418l-39 -203h-352 q35 -123 104.5 -171t173.5 -48q68 0 137.5 12.5t139.5 41.5l59 -236q-55 -29 -142 -50.5t-204 -21.5q-256 0 -391 124t-178 349h-148z" />
<glyph unicode="&#x2122;" horiz-adv-x="1748" d="M61 1208v211h660v-211h-209v-510h-242v510h-209zM801 698q14 254 30.5 427t32.5 294h217q43 -92 82 -187t80 -188q41 92 83 194.5t75 180.5h219q20 -121 35.5 -294t32.5 -427h-236l-8 383l-121 -307h-162l-121 305q0 -66 -1 -130t-2 -117.5t-2 -90t-1 -43.5h-233z" />
<glyph unicode="&#x2206;" horiz-adv-x="1419" d="M20 0q72 225 139.5 413.5t134 357.5t135.5 326.5t146 321.5h267q76 -164 146.5 -322.5t138 -327.5t134 -357.5t138.5 -411.5h-1379zM424 266h565q-88 256 -160.5 461t-123.5 313q-25 -55 -56 -135t-66.5 -180t-75.5 -216t-83 -243z" />
<glyph unicode="&#xe000;" horiz-adv-x="1075" d="M0 1075h1075v-1075h-1075v1075z" />
<glyph horiz-adv-x="808" d="M18 1518l211 55q16 -78 54.5 -110.5t89.5 -32.5q53 0 91 29.5t54 111.5l209 -55q-6 -70 -38 -124.5t-80 -91t-109.5 -56t-126.5 -19.5q-66 0 -126.5 19.5t-109.5 57t-81 92t-38 124.5z" />
<glyph horiz-adv-x="780" d="M215 1010l111 458l249 -69l-161 -441z" />
</font>
</defs>
</svg>
